Μετάβαση στο περιεχόμενο
  • Enter forum

  • Enter forum

  • Enter forum

    ΖΩΙΔΑΚΗΣ ΝΙΚΟΣ - ΚΡΑΥΓΕΣ (04/2018)

    President
    By President,

    9OKvgPa.jpg

     


    Artist: Ζωϊδάκης Νίκος
    Album: Κραυγές
    Year: 2018
    Tracks: 12
    Size: 114.3 MB
    Codec: Mp3 / 320 kbps
    Covers: Full

     

    HjBdt.png

     


    Back Cover: Here

     

    RmY8Z.png

    Hidden Content

      Give reaction or reply to this topic to see the hidden content.

     

    logo.png

    Hidden Content

      Give reaction or reply to this topic to see the hidden content.

     


    MCFyYyM.png

    Hidden Content

      Give reaction or reply to this topic to see the hidden content.

    • 32 απαντήσεις
    • 285 views
    • Add Reply

    MAZE RUNNER THE DEATH CURE (2018) HDRip XviD AC3-EVO | ENΣΩΜΑΤ/ΥΠΟΤ

    вирус
    By вирус,
    woIakvK.jpg
     

    ΣΚΗΝΟΘΕΣΙΑ : Wes Ball

    ΣΕΝΑΡΙΟ :  T.S. Nowlin (screenplay by), James Dashner

    ΗΘΟΠΟΙΟΙ : Dylan O'Brien, Ki Hong Lee, Kaya Scodelario

    ΕΙΔΟΣ : Action, Sci-Fi, Thriller 

    ΠΡΕΜΙΕΡΑ : 25 January 2018 (Greece)

     

    ΜΕΤΑΦΡΑΣΗ : T3LL4V1S10N

     

     

    Ο Τόμας πρέπει να οδηγήσει την ομάδα των Γκλέιντερς που έχουν αποδράσει, στην τελευταία και πιο επικίνδυνη αποστολή τους μέχρι τώρα. Για να σώσουν τους φίλους τους, θα πρέπει να καταφέρουν να μπουν στη θρυλική Τελευταία Πόλη, έναν λαβύρινθο ελεγχόμενο από τη WKCD, που ίσως αποδειχτεί ο πιο θανάσιμος λαβύρινθος από όλους. Όποιος καταφέρει να βγει ζωντανός, θα πάρει απαντήσεις στις ερωτήσεις που είχαν οι Γκλέιντερς από την πρώτη στιγμή που έφτασαν στον λαβύρινθο...

     

    yDzuZzR.jpg

     

     

    3sZwobQ.png


     

     

    TEXNIKA XAΡΑΚΤΗΡΙΣΤΙΚΑ

    General


    Format                      : AVI

    Format/Info                 : Audio Video Interleave

    File size                   : 1.52 GiB

    Duration                    : 2 h 23 min

    Overall bit rate            : 1 515 kb/s

    Writing application         : VirtualDubMod 1.5.10.2 (build 2542/release)

    Writing library             : VirtualDubMod build 2542/release

     

    Video

    ID                          : 0

    Format                      : MPEG-4 Visual

    Format profile              : Advanced [email protected]

    Format settings, BVOP       : 1

    Format settings, QPel       : No

    Format settings, GMC        : No warppoints

    Format settings, Matrix     : Default (H.263)

    Muxing mode                 : Packed bitstream

    Codec ID                    : XVID

    Codec ID/Hint               : XviD

    Duration                    : 2 h 23 min

    Bit rate                    : 1 123 kb/s

    Width                       : 720 pixels

    Height                      : 304 pixels

    Display aspect ratio        : 2.35:1

    Frame rate                  : 23.976 (24000/1001) FPS

    Color space                 : YUV

    Chroma subsampling          : 4:2:0

    Bit depth                   : 8 bits

    Scan type                   : Progressive

    Compression mode            : Lossy

    Bits/(Pixel*Frame)          : 0.214

    Stream size                 : 1.13 GiB (74%)

    Writing library             : XviD 64

     

    Audio

    ID                          : 1

    Format                      : AC-3

    Format/Info                 : Audio Coding 3

    Format settings, Endianness : Big

    Codec ID                    : 2000

    Duration                    : 2 h 23 min

    Bit rate mode               : Constant

    Bit rate                    : 384 kb/s

    Channel(s)                  : 6 channels

    Channel positions           : Front: L C R, Side: L R, LFE

    Sampling rate               : 48.0 kHz

    Frame rate                  : 31.250 FPS (1536 spf)

    Bit depth                   : 16 bits

    Compression mode            : Lossy

    Stream size                 : 395 MiB (25%)

    Alignment                   : Split accross interleaves

    Interleave, duration        : 64  ms (1.53 video frames)

    Interleave, preload duratio : 500  ms

    Service kind                : Complete Main


     

     

    usDrZmS.png

    http://www.imdb.com/title/tt4500922/

     

     

    GngRSiQ.png

     

    hsp9fZM.png

     

    Hidden Content

      Give reaction or reply to this topic to see the hidden content.

     

     

    eCmryx5.png

     

    Hidden Content

      Give reaction or reply to this topic to see the hidden content.

     

     

    WhnxB5b.png

     

    Hidden Content

      Give reaction or reply to this topic to see the hidden content.


    • 24 απαντήσεις
    • 310 views
    • Add Reply

    REBIRTH (2016) HDRip XviD AC3-EVO | ENΣΩΜΑΤΩΜΕΝΟΙ ΥΠΟΤΙΤΛΟΙ

    вирус
    By вирус,
    1BbCAYf.jpg
     

    ΣΚΗΝΟΘΕΣΙΑ : Karl Mueller

    ΣΕΝΑΡΙΟ : Karl Mueller

    ΗΘΟΠΟΙΟΙ : Fran Kranz, Adam Goldberg, Nicky Whelan 

    ΕΙΔΟΣ : Thriller 

    ΠΡΕΜΙΕΡΑ : 15 July 2016 (USA)

     

    ΜΕΤΑΦΡΑΣΗ : Άλκηστις Παλαιολόγου

     

     

     

    Ένας προνομιούχος πατέρας o Κάιλ (Fran Kranz), ο οποίος μένει έκπληκτος όταν συναντάει στο γραφείο του τον χαμένο φίλο του απο το κολέγιο, Zack (Adam Goldberg). Ο Ζακ είναι ένας ιδιόμορφος και τρελός χαρακτήρας όπως πάντα, γεμάτος ενθουσιασμό για το πρόγραμμα αυτοεκκατάστασης που μόλις τελείωσε και ονομάζεται Αναγέννηση. Λέει στον Κάιλ να συμετάσχει στο προγραμά Αναγέννηση το Σαββατοκύριακο, παραδίδοντας όμως πρώτα τα κλειδιά, το πορτοφόλι και το τηλέφωνό του. Έτσι αρχίζει ένα ταξίδι χωρίς τέλος, ένας κατήφορος στην ψύχωση, την αποπλάνηση και τη βία.....

     

    ci10vnM.jpg

     

     

    3sZwobQ.png


     

     

    TEXNIKA XAΡΑΚΤΗΡΙΣΤΙΚΑ

    General


    Format                      : AVI

    Format/Info                 : Audio Video Interleave

    File size                   : 1.28 GiB

    Duration                    : 1 h 40 min

    Overall bit rate            : 1 817 kb/s

    Writing application         : AVI-Mux GUI 1.17.8.3, Feb 16 201019:42:50

    Writing library             : VirtualDub build 32661/release

     

    Video

    ID                          : 0

    Format                      : MPEG-4 Visual

    Format profile              : Advanced [email protected]

    Format settings, BVOP       : 1

    Format settings, QPel       : No

    Format settings, GMC        : No warppoints

    Format settings, Matrix     : Default (H.263)

    Muxing mode                 : Packed bitstream

    Codec ID                    : XVID

    Codec ID/Hint               : XviD

    Duration                    : 1 h 40 min

    Bit rate                    : 1 615 kb/s

    Width                       : 720 pixels

    Height                      : 304 pixels

    Display aspect ratio        : 2.35:1

    Frame rate                  : 23.976 (24000/1001) FPS

    Color space                 : YUV

    Chroma subsampling          : 4:2:0

    Bit depth                   : 8 bits

    Scan type                   : Progressive

    Compression mode            : Lossy

    Bits/(Pixel*Frame)          : 0.308

    Stream size                 : 1.13 GiB (89%)

    Writing library             : XviD 64

     

    Audio

    ID                          : 1

    Format                      : AC-3

    Format/Info                 : Audio Coding 3

    Format settings, Endianness : Big

    Codec ID                    : 2000

    Duration                    : 1 h 40 min

    Bit rate mode               : Constant

    Bit rate                    : 192 kb/s

    Channel(s)                  : 2 channels

    Channel positions           : Front: L R

    Sampling rate               : 48.0 kHz

    Frame rate                  : 31.250 FPS (1536 spf)

    Bit depth                   : 16 bits

    Compression mode            : Lossy

    Stream size                 : 138 MiB (11%)

    Alignment                   : Split accross interleaves

    Interleave, duration        : 42  ms (1.00 video frame)

    Interleave, preload duratio : 500  ms

    Service kind                : Complete Main


     

     

    usDrZmS.png

    http://www.imdb.com/title/tt4902716/

     

     

    GngRSiQ.png

     

    hsp9fZM.png

     

    Hidden Content

      Give reaction or reply to this topic to see the hidden content.

     

     

    eCmryx5.png

     

    Hidden Content

      Give reaction or reply to this topic to see the hidden content.

     

     

     

    WhnxB5b.png

     

    Hidden Content

      Give reaction or reply to this topic to see the hidden content.


     

     

     

     

     

     

     

     

     

    • 11 απαντήσεις
    • 223 views
    • Add Reply

    RUNNING WILD (2017) HDRip XviD AC3-iFT | ENΣΩΜΑΤΩΜΕΝΟΙ ΥΠΟΤΙΤΛΟΙ

    вирус
    By вирус,
    ht0zKn3.jpg
     

    ΣΚΗΝΟΘΕΣΙΑ : Alex Ranarivelo

    ΣΕΝΑΡΙΟ : Christina Moore, Brian Rudnick

    ΗΘΟΠΟΙΟΙ : Sharon Stone, Tommy Flanagan, Christina Moore

    ΕΙΔΟΣ : Drama, Western

    ΠΡΕΜΙΕΡΑ : 10 February 2017 (USA)

     

    ΜΕΤΑΦΡΑΣΗ : Μπέσυ Μαθιοπούλου

     

     

     

    Η Stella Davis προσπαθεί να σώσει τη φάρμα της μετά το θάνατο του άντρα της σε αυτοκινητιστικό δυστύχημα. Δημιουργεί ένα πρόγραμμα επανένταξης για κατάδικους και μαζί προσπαθούν να δαμάσουν ένα κοπάδι άγριων αλόγων που περιπλανούνται στην γη της. Δεν είχε προβλέψει την απληστία, τη γραφειοκρατία και τη ματαιοδοξία που πρέπει να ξεπεράσει για να θεραπεύσει τους κατάδικους, τα άλογα και τελικά τον εαυτό της...

     

    MRnFAbR.jpg

     

     

    3sZwobQ.png


     

     

    TEXNIKA XAΡΑΚΤΗΡΙΣΤΙΚΑ

    General


    Format                      : AVI

    Format/Info                 : Audio Video Interleave

    File size                   : 1.61 GiB

    Duration                    : 1 h 39 min

    Overall bit rate            : 2 315 kb/s

    Writing application         : VirtualDubMod 1.5.10.2 (build 2542/release)

    Writing library             : VirtualDubMod build 2542/release

     

    Video

    ID                          : 0

    Format                      : MPEG-4 Visual

    Format profile              : Advanced [email protected]

    Format settings, BVOP       : 1

    Format settings, QPel       : No

    Format settings, GMC        : No warppoints

    Format settings, Matrix     : Default (H.263)

    Muxing mode                 : Packed bitstream

    Codec ID                    : XVID

    Codec ID/Hint               : XviD

    Duration                    : 1 h 39 min

    Bit rate                    : 1 924 kb/s

    Width                       : 720 pixels

    Height                      : 304 pixels

    Display aspect ratio        : 2.35:1

    Frame rate                  : 23.976 (24000/1001) FPS

    Color space                 : YUV

    Chroma subsampling          : 4:2:0

    Bit depth                   : 8 bits

    Scan type                   : Progressive

    Compression mode            : Lossy

    Bits/(Pixel*Frame)          : 0.367

    Stream size                 : 1.34 GiB (83%)

    Writing library             : XviD 64

     

    Audio

    ID                          : 1

    Format                      : AC-3

    Format/Info                 : Audio Coding 3

    Format settings, Endianness : Big

    Codec ID                    : 2000

    Duration                    : 1 h 39 min

    Bit rate mode               : Constant

    Bit rate                    : 384 kb/s

    Channel(s)                  : 6 channels

    Channel positions           : Front: L C R, Side: L R, LFE

    Sampling rate               : 48.0 kHz

    Frame rate                  : 31.250 FPS (1536 spf)

    Bit depth                   : 16 bits

    Compression mode            : Lossy

    Stream size                 : 273 MiB (17%)

    Alignment                   : Split accross interleaves

    Interleave, duration        : 64  ms (1.53 video frames)

    Interleave, preload duratio : 500  ms

    Service kind                : Complete Main


     

     

    usDrZmS.png

    http://www.imdb.com/title/tt4435082/

     

     

    GngRSiQ.png

     

    hsp9fZM.png

     

    Hidden Content

      Give reaction or reply to this topic to see the hidden content.

     

     

    eCmryx5.png

     

    Hidden Content

      Give reaction or reply to this topic to see the hidden content.

     

     

     

    WhnxB5b.png

     

    Hidden Content

      Give reaction or reply to this topic to see the hidden content.


     

     

     

     

     

     

     

     

     

    • 14 απαντήσεις
    • 276 views
    • Add Reply

    THE COMMUTER (2018) BRRip XviD AC3-XVID | ENΣΩΜΑΤΩΜΕΝΟΙ ΥΠΟΤΙΤΛΟΙ

    вирус
    By вирус,
    KN4MVwq.jpg
     

    ΣΚΗΝΟΘΕΣΙΑ : Jaume Collet-Serra

    ΣΕΝΑΡΙΟ : Byron Willinger (story by), Philip de Blasi

    ΗΘΟΠΟΙΟΙ : Liam Neeson, Vera Farmiga, Patrick Wilson 

    ΕΙΔΟΣ : Action, Crime, Drama 

    ΠΡΕΜΙΕΡΑ : 11 January 2018 (Greece)

     

    ΜΕΤΑΦΡΑΣΗ : TomTsan

     

     

     

    Ο Μάικλ είναι ένας ασφαλιστής που αυτή τη στιγμή βρίσκεται στην καθημερινή του διαδρομή με τη συγκοινωνία για το σπίτι του. Αλλά αυτή τη φορά δεν θα είναι καθόλου ρουτίνα. Αφού έρχεται σε επαφή με έναν μυστηριώδη ξένο, εξαναγκάζεται να αποκαλύψει την ταυτότητα ενός κρυμμένου επιβάτη στο τρένο, πριν την τελευταία στάση. Καθώς προσπαθεί να λύσει όλο αυτό τον γρίφο ενάντια στον χρόνο, συνειδητοποιεί ότι ένα δολοφονικό σχέδιο έχει ξεδιπλωθεί και άθελα του βρίσκεται εν μέσω μιας εγκληματικής συνομωσίας...

     

    xY6zUZa.jpg

     

     

    3sZwobQ.png


     

     

    TEXNIKA XAΡΑΚΤΗΡΙΣΤΙΚΑ

    General


    Format                      : AVI

    Format/Info                 : Audio Video Interleave

    File size                   : 1.44 GiB

    Duration                    : 1 h 44 min

    Overall bit rate            : 1 960 kb/s

    Writing application         : VirtualDubMod 1.5.10.2 (build 2542/release)

    Writing library             : VirtualDubMod build 2542/release

     

    Video

    ID                          : 0

    Format                      : MPEG-4 Visual

    Format profile              : Advanced [email protected]

    Format settings, BVOP       : 1

    Format settings, QPel       : No

    Format settings, GMC        : No warppoints

    Format settings, Matrix     : Default (H.263)

    Muxing mode                 : Packed bitstream

    Codec ID                    : XVID

    Codec ID/Hint               : XviD

    Duration                    : 1 h 44 min

    Bit rate                    : 1 504 kb/s

    Width                       : 720 pixels

    Height                      : 302 pixels

    Display aspect ratio        : 2.40:1

    Frame rate                  : 23.976 (24000/1001) FPS

    Color space                 : YUV

    Chroma subsampling          : 4:2:0

    Bit depth                   : 8 bits

    Scan type                   : Progressive

    Compression mode            : Lossy

    Bits/(Pixel*Frame)          : 0.288

    Stream size                 : 1.10 GiB (77%)

    Writing library             : XviD 64

     

    Audio

    ID                          : 1

    Format                      : AC-3

    Format/Info                 : Audio Coding 3

    Format settings, Endianness : Big

    Codec ID                    : 2000

    Duration                    : 1 h 44 min

    Bit rate mode               : Constant

    Bit rate                    : 448 kb/s

    Channel(s)                  : 6 channels

    Channel positions           : Front: L C R, Side: L R, LFE

    Sampling rate               : 48.0 kHz

    Frame rate                  : 31.250 FPS (1536 spf)

    Bit depth                   : 16 bits

    Compression mode            : Lossy

    Stream size                 : 336 MiB (23%)

    Alignment                   : Split accross interleaves

    Interleave, duration        : 64  ms (1.53 video frames)

    Interleave, preload duratio : 500  ms

    Service kind                : Complete Main


     

     

    usDrZmS.png

    http://www.imdb.com/title/tt1590193/

     

     

    GngRSiQ.png

     

    hsp9fZM.png

     

    Hidden Content

      Give reaction or reply to this topic to see the hidden content.

     

     

    eCmryx5.png

     

    Hidden Content

      Give reaction or reply to this topic to see the hidden content.

     

     

     

    WhnxB5b.png

     

    Hidden Content

      Give reaction or reply to this topic to see the hidden content.


     

     

     

     

     

     

     

     

     

    • 78 απαντήσεις
    • 957 views
    • Add Reply

Portal by DevFuse · Based on IP.Board Portal by IPS
×