Μετάβαση στο περιεχόμενο
  • Enter forum

  • Enter forum

  • Enter forum

    A BAD MOMS CHRISTMAS (2017) BRRip XviD AC3-EVO | ENΣΩΜΑΤΩΜΕΝΟΙ ΥΠΟΤΙΤΛΟΙ

    вирус
    By вирус,
    y2LKRKc.jpg
     

    ΣΚΗΝΟΘΕΣΙΑ : Jon Lucas, Scott Moore

    ΣΕΝΑΡΙΟ : Jon Lucas, Scott Moore

    ΗΘΟΠΟΙΟΙ : Mila Kunis, Kristen Bell, Kathryn Hahn

    ΕΙΔΟΣ : Adventure, Comedy 

    ΠΡΕΜΙΕΡΑ : 7 December 2017 (Greece)

     

    ΜΕΤΑΦΡΑΣΗ : OFFiCiAL

     

     

     

    Η Έιμι, η Κάρλα και η Κίκι, οι τρεις φίλες που ξεπέρασαν τα όρια τους όταν δεν έβρισκαν την εκτίμηση που ήθελαν, επαναστατούν τώρα ενάντια στις δυσκολίες της ανώτερης πρόκλησης για τις μαμάδες: τα Χριστούγεννα. Και αν δεν είναι δα δύσκολο να φτιάξεις τις τέλειες γιορτές για την οικογένεια σου, πρέπει να το καταφέρουν ενώ φιλοξενούν και τις δικές τους μητέρες...

     

    oHWlhXh.jpg

     

     

    3sZwobQ.png


     

     

    TEXNIKA XAΡΑΚΤΗΡΙΣΤΙΚΑ

    General


    Format                      : AVI

    Format/Info                 : Audio Video Interleave

    File size                   : 1.34 GiB

    Duration                    : 1 h 44 min

    Overall bit rate            : 1 837 kb/s

    Writing application         : VirtualDubMod 1.5.10.2 (build 2542/release)

    Writing library             : VirtualDubMod build 2542/release

     

    Video

    ID                          : 0

    Format                      : MPEG-4 Visual

    Format profile              : Advanced [email protected]

    Format settings, BVOP       : 1

    Format settings, QPel       : No

    Format settings, GMC        : No warppoints

    Format settings, Matrix     : Default (H.263)

    Muxing mode                 : Packed bitstream

    Codec ID                    : XVID

    Codec ID/Hint               : XviD

    Duration                    : 1 h 44 min

    Bit rate                    : 1 445 kb/s

    Width                       : 720 pixels

    Height                      : 304 pixels

    Display aspect ratio        : 2.35:1

    Frame rate                  : 23.976 (24000/1001) FPS

    Color space                 : YUV

    Chroma subsampling          : 4:2:0

    Bit depth                   : 8 bits

    Scan type                   : Progressive

    Compression mode            : Lossy

    Bits/(Pixel*Frame)          : 0.275

    Stream size                 : 1.06 GiB (79%)

    Writing library             : XviD 64

     

    Audio

    ID                          : 1

    Format                      : AC-3

    Format/Info                 : Audio Coding 3

    Format settings, Endianness : Big

    Codec ID                    : 2000

    Duration                    : 1 h 44 min

    Bit rate mode               : Constant

    Bit rate                    : 384 kb/s

    Channel(s)                  : 6 channels

    Channel positions           : Front: L C R, Side: L R, LFE

    Sampling rate               : 48.0 kHz

    Frame rate                  : 31.250 FPS (1536 spf)

    Bit depth                   : 16 bits

    Compression mode            : Lossy

    Stream size                 : 287 MiB (21%)

    Alignment                   : Split accross interleaves

    Interleave, duration        : 64  ms (1.53 video frames)

    Interleave, preload duratio : 500  ms

    Service kind                : Complete Main


     

     

    usDrZmS.png

    http://www.imdb.com/title/tt6359956/

     

     

    GngRSiQ.png

     

    hsp9fZM.png

     

    Hidden Content

      Give reaction or reply to this topic to see the hidden content.

     

     

    eCmryx5.png

     

    Hidden Content

      Give reaction or reply to this topic to see the hidden content.

     

     

     

    WhnxB5b.png

     

    Hidden Content

      Give reaction or reply to this topic to see the hidden content.


     

    • 11 απαντήσεις
    • 222 views
    • Add Reply

    THE STRANGE ONES (2017) HDRip XviD AC3-EVO | ENΣΩΜΑΤΩΜΕΝΟΙ ΥΠΟΤΙΤΛΟΙ

    вирус
    By вирус,
    b2MqCC3.jpg
     

    ΣΚΗΝΟΘΕΣΙΑ : Christopher Radcliff, Lauren Wolkstein

    ΣΕΝΑΡΙΟ : Christopher Radcliff

    ΗΘΟΠΟΙΟΙ : Alex Pettyfer, James Freedson-Jackson, Emily Althaus 

    ΕΙΔΟΣ : Drama, Thriller 

    ΠΡΕΜΙΕΡΑ : 5 January 2018 (USA)

     

    ΜΕΤΑΦΡΑΣΗ : Drakontas[GTRD-movies]

     

     

     

    Μυστηριώδη γεγονότα περιβάλουν δυο ταξιδιώτες, καθώς διασχίζουν ένα απομονωμένο αμερικανικό τοπίο. Επιφανειακά όλα δείχνουν φυσιολογικά, όμως αυτό που φαίνεται σαν απλές διακοπές, σύντομα μετατρέπεται σε ένα σκοτεινό και πολύπλοκο ιστό μυστικών........

     

    m5gt9nA.jpg

     

     

    3sZwobQ.png


     

     

    TEXNIKA XAΡΑΚΤΗΡΙΣΤΙΚΑ

    General


    Format                      : AVI

    Format/Info                 : Audio Video Interleave

    File size                   : 1.07 GiB

    Duration                    : 1 h 21 min

    Overall bit rate            : 1 869 kb/s

    Writing application         : VirtualDubMod 1.5.10.2 (build 2542/release)

    Writing library             : VirtualDubMod build 2542/release

     

    Video

    ID                          : 0

    Format                      : MPEG-4 Visual

    Format profile              : Advanced [email protected]

    Format settings, BVOP       : 1

    Format settings, QPel       : No

    Format settings, GMC        : No warppoints

    Format settings, Matrix     : Default (H.263)

    Muxing mode                 : Packed bitstream

    Codec ID                    : XVID

    Codec ID/Hint               : XviD

    Duration                    : 1 h 21 min

    Bit rate                    : 1 477 kb/s

    Width                       : 720 pixels

    Height                      : 304 pixels

    Display aspect ratio        : 2.35:1

    Frame rate                  : 23.976 (24000/1001) FPS

    Color space                 : YUV

    Chroma subsampling          : 4:2:0

    Bit depth                   : 8 bits

    Scan type                   : Progressive

    Compression mode            : Lossy

    Bits/(Pixel*Frame)          : 0.281

    Stream size                 : 866 MiB (79%)

    Writing library             : XviD 1.2.1 (UTC 2008-12-04)

     

    Audio

    ID                          : 1

    Format                      : AC-3

    Format/Info                 : Audio Coding 3

    Format settings, Endianness : Big

    Codec ID                    : 2000

    Duration                    : 1 h 21 min

    Bit rate mode               : Constant

    Bit rate                    : 384 kb/s

    Channel(s)                  : 6 channels

    Channel positions           : Front: L C R, Side: L R, LFE

    Sampling rate               : 48.0 kHz

    Frame rate                  : 31.250 FPS (1536 spf)

    Bit depth                   : 16 bits

    Compression mode            : Lossy

    Stream size                 : 225 MiB (21%)

    Alignment                   : Split accross interleaves

    Interleave, duration        : 64  ms (1.53 video frames)

    Interleave, preload duratio : 500  ms

    Service kind                : Complete Main


     

     

    usDrZmS.png

    http://www.imdb.com/title/tt6014904/

     

     

    GngRSiQ.png

     

    hsp9fZM.png

     

    Hidden Content

      Give reaction or reply to this topic to see the hidden content.

     

     

    eCmryx5.png

     

    Hidden Content

      Give reaction or reply to this topic to see the hidden content.

     

     

     

    WhnxB5b.png

     

    Hidden Content

      Give reaction or reply to this topic to see the hidden content.


     

     

     

     

     

     

     

     

     


    YOU WERE NEVER REALLY HERE (2017) BDRip XviD AC3-iFT | ENΣΩΜΑΤΩΜΕΝΟΙ ΥΠΟΤΙΤΛΟΙ

    вирус
    By вирус,
    n5h7156.jpg
     

    ΣΚΗΝΟΘΕΣΙΑ : Lynne Ramsay

    ΣΕΝΑΡΙΟ : Lynne Ramsay

    ΗΘΟΠΟΙΟΙ : Joaquin Phoenix, Judith Roberts, Ekaterina Samsonov 

    ΕΙΔΟΣ : Drama, Mystery, Thriller 

    ΠΡΕΜΙΕΡΑ : 22 March 2018 (Greece)

     

    ΜΕΤΑΦΡΑΣΗ : pierre.beauman

     

     

     

    Βετεράνος πεζοναύτης, αντικοινωνικός και με ψυχολογικά προβλήματα, αναλαμβάνει έναντι αμοιβής να σώζει κορίτσια που έχουν πέσει θύματα σεξουαλικού εμπορίου και να τα επιστρέφει στις οικογένειές τους. Η φαινομενικά απλή υπόθεση εντοπισμού της ανήλικης κόρης ενός Νεοϋορκέζου Γερουσιαστή, τον οδηγεί σε ένα θανάσιμο δίκτυο διαφθοράς που αγγίζει υψηλά πολιτικά κλιμάκια.......

     

    16G4oHH.jpg

     

     

    3sZwobQ.png


     

     

    TEXNIKA XAΡΑΚΤΗΡΙΣΤΙΚΑ

    General


    Format                      : AVI

    Format/Info                 : Audio Video Interleave

    File size                   : 1.55 GiB

    Duration                    : 1 h 29 min

    Overall bit rate            : 2 487 kb/s

    Writing application         : VirtualDubMod 1.5.10.2 (build 2542/release)

    Writing library             : VirtualDubMod build 2542/release

     

    Video

    ID                          : 0

    Format                      : MPEG-4 Visual

    Format profile              : Advanced [email protected]

    Format settings, BVOP       : 1

    Format settings, QPel       : No

    Format settings, GMC        : No warppoints

    Format settings, Matrix     : Default (H.263)

    Muxing mode                 : Packed bitstream

    Codec ID                    : XVID

    Codec ID/Hint               : XviD

    Duration                    : 1 h 29 min

    Bit rate                    : 2 031 kb/s

    Width                       : 720 pixels

    Height                      : 304 pixels

    Display aspect ratio        : 2.35:1

    Frame rate                  : 24.000 FPS

    Color space                 : YUV

    Chroma subsampling          : 4:2:0

    Bit depth                   : 8 bits

    Scan type                   : Progressive

    Compression mode            : Lossy

    Bits/(Pixel*Frame)          : 0.387

    Stream size                 : 1.27 GiB (82%)

    Writing library             : XviD 64

     

    Audio

    ID                          : 1

    Format                      : AC-3

    Format/Info                 : Audio Coding 3

    Format settings, Endianness : Big

    Codec ID                    : 2000

    Duration                    : 1 h 29 min

    Bit rate mode               : Constant

    Bit rate                    : 448 kb/s

    Channel(s)                  : 6 channels

    Channel positions           : Front: L C R, Side: L R, LFE

    Sampling rate               : 48.0 kHz

    Frame rate                  : 31.250 FPS (1536 spf)

    Bit depth                   : 16 bits

    Compression mode            : Lossy

    Stream size                 : 287 MiB (18%)

    Alignment                   : Split accross interleaves

    Interleave, duration        : 64  ms (1.54 video frames)

    Interleave, preload duratio : 500  ms

    Service kind                : Complete Main


     

     

    usDrZmS.png

    http://www.imdb.com/title/tt5742374/

     

     

    GngRSiQ.png

     

    hsp9fZM.png

     

    Hidden Content

      Give reaction or reply to this topic to see the hidden content.

     

     

    eCmryx5.png

     

    Hidden Content

      Give reaction or reply to this topic to see the hidden content.

     

     

     

    WhnxB5b.png

     

    Hidden Content

      Give reaction or reply to this topic to see the hidden content.


     

     

     

     

     

     

     

     

     

    • 58 απαντήσεις
    • 641 views
    • Add Reply

    LE FILS DE JEAN (2016) FRENCH BDRip XviD AC3-EXTREME | ENΣΩΜΑΤΩΜΕΝΟΙ ΥΠΟΤΙΤΛΟΙ

    вирус
    By вирус,
    ezFwnDC.jpg
     

    ΣΚΗΝΟΘΕΣΙΑ : Philippe Lioret

    ΣΕΝΑΡΙΟ : Dominique Baumard

    ΗΘΟΠΟΙΟΙ : Pierre Deladonchamps, Gabriel Arcand, Catherine de Léan

    ΕΙΔΟΣ : Drama

    ΠΡΕΜΙΕΡΑ : 31 August 2016 (France)

     

    ΜΕΤΑΦΡΑΣΗ : Φώτης

     

     

     

    Ο Ματιέ είναι 33 ετών αλλά ποτέ δεν γνώρισε τον πατέρα του. Η μητέρα του – που δεν ζει πια – πάντοτε του έλεγε ότι ήταν αποτέλεσμα μιας τυχαίας συνάντησης. Όμως, μια μέρα ο Ματιέ δέχεται ένα τηλεφώνημα, που τον ενημερώνει ότι ο πατέρας του ήταν Καναδός και ότι μόλις είχε πεθάνει. Επίσης, μαθαίνει ότι έχει δύο εξ αγχιστείας αδερφούς και αποφασίζει να πάει στην κηδεία για να τους γνωρίσει. Φτάνοντας όμως στον Καναδά συνειδητοποιεί ότι κανείς δεν γνωρίζει την ύπαρξή του. Είναι μόνος, σε αφιλόξενο περιβάλλον…..

     

    DLooBc8.jpg

     

     

    3sZwobQ.png


     

     

    TEXNIKA XAΡΑΚΤΗΡΙΣΤΙΚΑ

    General


    Format                      : AVI

    Format/Info                 : Audio Video Interleave

    File size                   : 1.37 GiB

    Duration                    : 1 h 38 min

    Overall bit rate            : 2 001 kb/s

    Writing application         : VirtualDubMod 1.5.10.2 (build 2542/release)

    Writing library             : VirtualDubMod build 2542/release

     

    Video

    ID                          : 0

    Format                      : MPEG-4 Visual

    Format profile              : Advanced [email protected]

    Format settings, BVOP       : 1

    Format settings, QPel       : No

    Format settings, GMC        : No warppoints

    Format settings, Matrix     : Default (H.263)

    Muxing mode                 : Packed bitstream

    Codec ID                    : XVID

    Codec ID/Hint               : XviD

    Duration                    : 1 h 38 min

    Bit rate                    : 1 609 kb/s

    Width                       : 720 pixels

    Height                      : 304 pixels

    Display aspect ratio        : 2.35:1

    Frame rate                  : 23.976 (24000/1001) FPS

    Color space                 : YUV

    Chroma subsampling          : 4:2:0

    Bit depth                   : 8 bits

    Scan type                   : Progressive

    Compression mode            : Lossy

    Bits/(Pixel*Frame)          : 0.307

    Stream size                 : 1.10 GiB (80%)

    Writing library             : XviD 64

     

    Audio

    ID                          : 1

    Format                      : AC-3

    Format/Info                 : Audio Coding 3

    Format settings, Endianness : Big

    Codec ID                    : 2000

    Duration                    : 1 h 38 min

    Bit rate mode               : Constant

    Bit rate                    : 384 kb/s

    Channel(s)                  : 6 channels

    Channel positions           : Front: L C R, Side: L R, LFE

    Sampling rate               : 48.0 kHz

    Frame rate                  : 31.250 FPS (1536 spf)

    Bit depth                   : 16 bits

    Compression mode            : Lossy

    Stream size                 : 269 MiB (19%)

    Alignment                   : Split accross interleaves

    Interleave, duration        : 64  ms (1.53 video frames)

    Interleave, preload duratio : 500  ms

    Service kind                : Complete Main


     

     

    usDrZmS.png

    http://www.imdb.com/title/tt4741708/

     

     

    GngRSiQ.png

     

    hsp9fZM.png

     

    Hidden Content

      Give reaction or reply to this topic to see the hidden content.

     

     

    eCmryx5.png

     

    Hidden Content

      Give reaction or reply to this topic to see the hidden content.

     

     

     

    WhnxB5b.png

     

    Hidden Content

      Give reaction or reply to this topic to see the hidden content.


     

     

     

     

     

     

     

     

     

    • 23 απαντήσεις
    • 389 views
    • Add Reply

    I KILL GIANTS (2017) HDRip XviD AC3-iFT | ENΣΩΜΑΤΩΜΕΝΟΙ ΥΠΟΤΙΤΛΟΙ

    вирус
    By вирус,
    IoIObzd.jpg
     

    ΣΚΗΝΟΘΕΣΙΑ : Anders Walter

    ΣΕΝΑΡΙΟ : Joe Kelly

    ΗΘΟΠΟΙΟΙ : Madison Wolfe, Zoe Saldana, Imogen Poots

    ΕΙΔΟΣ : Drama, Fantasy, Thriller 

    ΠΡΕΜΙΕΡΑ : 23 March 2018 (USA)

     

    ΜΕΤΑΦΡΑΣΗ : Άγνωστος

     

     

     

    Κεντρική ηρωίδα είναι η Barbara, ένα κορίτσι λίγο διαφορετικό από τα άλλα,  εσωστρεφής, αστεία αλλά με το δικό της ιδιαίτερο τρόπο, εξ ου και μοναχική. Λατρεύει τον κόσμο του Dungeons & Dragons, όμως αυτή η αγάπη της έχει αρχίσει να ξεφεύγει, με το κορίτσι να έχει αρχίσει να μπερδεύει τη πραγματικότητα με το φανταστικό. Είναι σίγουρη ότι Γίγαντες πρόκειται να επιτεθούν, και με τη βοήθεια των Νεράιδων ετοιμάζει την άμυνά της...

     

    QdpVzQ5.jpg

     

     

    3sZwobQ.png


     

     

    TEXNIKA XAΡΑΚΤΗΡΙΣΤΙΚΑ

    General


    Format                      : AVI

    Format/Info                 : Audio Video Interleave

    File size                   : 1.82 GiB

    Duration                    : 1 h 46 min

    Overall bit rate            : 2 441 kb/s

    Writing application         : VirtualDubMod 1.5.10.2 (build 2542/release)

    Writing library             : VirtualDubMod build 2542/release

     

    Video

    ID                          : 0

    Format                      : MPEG-4 Visual

    Format profile              : Advanced [email protected]

    Format settings, BVOP       : 1

    Format settings, QPel       : No

    Format settings, GMC        : No warppoints

    Format settings, Matrix     : Default (H.263)

    Muxing mode                 : Packed bitstream

    Codec ID                    : XVID

    Codec ID/Hint               : XviD

    Duration                    : 1 h 46 min

    Bit rate                    : 2 049 kb/s

    Width                       : 720 pixels

    Height                      : 304 pixels

    Display aspect ratio        : 2.35:1

    Frame rate                  : 23.976 (24000/1001) FPS

    Color space                 : YUV

    Chroma subsampling          : 4:2:0

    Bit depth                   : 8 bits

    Scan type                   : Progressive

    Compression mode            : Lossy

    Bits/(Pixel*Frame)          : 0.390

    Stream size                 : 1.52 GiB (84%)

    Writing library             : XviD 64

     

    Audio

    ID                          : 1

    Format                      : AC-3

    Format/Info                 : Audio Coding 3

    Format settings, Endianness : Big

    Codec ID                    : 2000

    Duration                    : 1 h 46 min

    Bit rate mode               : Constant

    Bit rate                    : 384 kb/s

    Channel(s)                  : 6 channels

    Channel positions           : Front: L C R, Side: L R, LFE

    Sampling rate               : 48.0 kHz

    Frame rate                  : 31.250 FPS (1536 spf)

    Bit depth                   : 16 bits

    Compression mode            : Lossy

    Stream size                 : 293 MiB (16%)

    Alignment                   : Split accross interleaves

    Interleave, duration        : 64  ms (1.53 video frames)

    Interleave, preload duratio : 500  ms

    Service kind                : Complete Main


     

     

    usDrZmS.png

    http://www.imdb.com/title/tt4547194/

     

     

    GngRSiQ.png

     

    hsp9fZM.png

     

    Hidden Content

      Give reaction or reply to this topic to see the hidden content.

     

     

    eCmryx5.png

     

    Hidden Content

      Give reaction or reply to this topic to see the hidden content.

     

     

     

    WhnxB5b.png

     

    Hidden Content

      Give reaction or reply to this topic to see the hidden content.


     

     

     

     

     

     

     

     

     

    • 22 απαντήσεις
    • 385 views
    • Add Reply

Portal by DevFuse · Based on IP.Board Portal by IPS
×