Μετάβαση στο περιεχόμενο
  • Enter forum

  • Enter forum

  • Enter forum

    DEVILS TREE ROOTED EVIL (2018) HDRip XviD AC3-EVO | ENΣΩΜΑΤΩΜΕΝΟΙ ΥΠΟΤΙΤΛΟΙ

    вирус
    By вирус,
    GvawtLK.jpg
     

    ΣΚΗΝΟΘΕΣΙΑ : Chris Alonso (co-director), Joshua Louis (co-director)

    ΣΕΝΑΡΙΟ : Joshua Louis (story), Chris Alonso

    ΗΘΟΠΟΙΟΙ : Diana D. Ambrosio, Ryan App, Chris Caputo

    ΕΙΔΟΣ : Horror, Thriller 

    ΠΡΕΜΙΕΡΑ : 27 February 2018 (USA)

     

    ΜΕΤΑΦΡΑΣΗ : Άγνωστος

     

     

     

    Εμπνευσμένη από αληθινά γεγονότα, η ταινία ακολουθεί την Σαμάνθα, μια φοιτήτρια κολλεγίου με ειδικότητα στην δημοσιογραφία, η οποία πρέπει να ολοκληρώσει την διατριβή της με μία πολύ καλή ιστορία. Μαζί με τον φίλο της Ρομπ, η Σαμάνθα πέφτει επάνω σε ένα ειδησεογραφικό άρθρο σχετικά με ένα παλιό δέντρο σε ένα τοπικό πάρκο στο οποίο συνέβησαν φρικτά πράγματα. Οι ντόπιοι ονόμασαν το δέντρο, " Δέντρο του Διαβόλου" λόγω των αστικών θρύλων του για μαζικές δολοφονίες, σατανικές τελετουργίες και παραφυσική δραστηριότητα. Έτσι αποφασίζουν πως αυτή είναι η τέλεια ιστορία για την διατριβή της. Σιγά σιγά αρχίζει να αποκαλύπτεται η αλήθεια σχετικά με αυτόν τον αστικό θρύλο.....

     

    JY3AufK.jpg

     

     

    3sZwobQ.png


     

     

    TEXNIKA XAΡΑΚΤΗΡΙΣΤΙΚΑ

    General


    Format                      : AVI

    Format/Info                 : Audio Video Interleave

    File size                   : 1.36 GiB

    Duration                    : 1 h 14 min

    Overall bit rate            : 2 612 kb/s

    Writing application         : VirtualDubMod 1.5.10.2 (build 2542/release)

    Writing library             : VirtualDubMod build 2542/release

     

    Video

    ID                          : 0

    Format                      : MPEG-4 Visual

    Format profile              : Advanced [email protected]

    Format settings, BVOP       : 1

    Format settings, QPel       : No

    Format settings, GMC        : No warppoints

    Format settings, Matrix     : Default (H.263)

    Muxing mode                 : Packed bitstream

    Codec ID                    : XVID

    Codec ID/Hint               : XviD

    Duration                    : 1 h 14 min

    Bit rate                    : 2 221 kb/s

    Width                       : 720 pixels

    Height                      : 304 pixels

    Display aspect ratio        : 2.35:1

    Frame rate                  : 23.976 (24000/1001) FPS

    Color space                 : YUV

    Chroma subsampling          : 4:2:0

    Bit depth                   : 8 bits

    Scan type                   : Progressive

    Compression mode            : Lossy

    Bits/(Pixel*Frame)          : 0.423

    Stream size                 : 1.16 GiB (85%)

    Writing library             : XviD 64

     

    Audio

    ID                          : 1

    Format                      : AC-3

    Format/Info                 : Audio Coding 3

    Format settings, Endianness : Big

    Codec ID                    : 2000

    Duration                    : 1 h 14 min

    Bit rate mode               : Constant

    Bit rate                    : 384 kb/s

    Channel(s)                  : 6 channels

    Channel positions           : Front: L C R, Side: L R, LFE

    Sampling rate               : 48.0 kHz

    Frame rate                  : 31.250 FPS (1536 spf)

    Bit depth                   : 16 bits

    Compression mode            : Lossy

    Stream size                 : 205 MiB (15%)

    Alignment                   : Split accross interleaves

    Interleave, duration        : 64  ms (1.53 video frames)

    Interleave, preload duratio : 500  ms

    Service kind                : Complete Main


     

     

    usDrZmS.png

    http://www.imdb.com/title/tt7315526/

     

     

    GngRSiQ.png

     

    hsp9fZM.png

     

    Hidden Content

      Give reaction or reply to this topic to see the hidden content.

     

     

    eCmryx5.png

     

    Hidden Content

      Give reaction or reply to this topic to see the hidden content.

     

     

     

    WhnxB5b.png

     

    Hidden Content

      Give reaction or reply to this topic to see the hidden content.


    • 10 απαντήσεις
    • 182 views
    • Add Reply

    6 BALLOONS (2018) HDRip XviD AC3-EVO | ENΣΩΜΑΤΩΜΕΝΟΙ ΥΠΟΤΙΤΛΟΙ

    вирус
    By вирус,
    KX2oEIA.jpg
     

    ΣΚΗΝΟΘΕΣΙΑ : Marja-Lewis Ryan

    ΣΕΝΑΡΙΟ : Marja-Lewis Ryan

    ΗΘΟΠΟΙΟΙ : Dave Franco, Tim Matheson, Jane Kaczmarek

    ΕΙΔΟΣ : Drama

    ΠΡΕΜΙΕΡΑ : 6 April 2018 (USA)

     

    ΜΕΤΑΦΡΑΣΗ : DVD

     

     

     

    Μέσα σε μία νύχτα, μια γυναίκα γυρίζει με το αυτοκίνητο όλο το Λος Άντζελες, αναζητώντας κέντρο αποτοξίνωσης για τον αδερφό της ο οποίος είναι εθισμένος στην ηρωίνη. Μαζί τους έχουν την κόρη του....

     

    N6ODQB8.jpg

     

     

    3sZwobQ.png


     

     

    TEXNIKA XAΡΑΚΤΗΡΙΣΤΙΚΑ

    General


    Format                      : AVI

    Format/Info                 : Audio Video Interleave

    File size                   : 1.24 GiB

    Duration                    : 1 h 15 min

    Overall bit rate            : 2 354 kb/s

    Writing application         : VirtualDubMod 1.5.10.2 (build 2542/release)

    Writing library             : VirtualDubMod build 2542/release

     

    Video

    ID                          : 0

    Format                      : MPEG-4 Visual

    Format profile              : Advanced [email protected]

    Format settings, BVOP       : 1

    Format settings, QPel       : No

    Format settings, GMC        : No warppoints

    Format settings, Matrix     : Default (H.263)

    Muxing mode                 : Packed bitstream

    Codec ID                    : XVID

    Codec ID/Hint               : XviD

    Duration                    : 1 h 15 min

    Bit rate                    : 1 962 kb/s

    Width                       : 736 pixels

    Height                      : 368 pixels

    Display aspect ratio        : 2.000

    Frame rate                  : 23.976 (24000/1001) FPS

    Color space                 : YUV

    Chroma subsampling          : 4:2:0

    Bit depth                   : 8 bits

    Scan type                   : Progressive

    Compression mode            : Lossy

    Bits/(Pixel*Frame)          : 0.302

    Stream size                 : 1.03 GiB (83%)

    Writing library             : XviD 64

     

    Audio

    ID                          : 1

    Format                      : AC-3

    Format/Info                 : Audio Coding 3

    Format settings, Endianness : Big

    Codec ID                    : 2000

    Duration                    : 1 h 15 min

    Bit rate mode               : Constant

    Bit rate                    : 384 kb/s

    Channel(s)                  : 6 channels

    Channel positions           : Front: L C R, Side: L R, LFE

    Sampling rate               : 48.0 kHz

    Frame rate                  : 31.250 FPS (1536 spf)

    Bit depth                   : 16 bits

    Compression mode            : Lossy

    Stream size                 : 207 MiB (16%)

    Alignment                   : Split accross interleaves

    Interleave, duration        : 64  ms (1.53 video frames)

    Interleave, preload duratio : 500  ms

    Service kind                : Complete Main


     

     

    usDrZmS.png

    http://www.imdb.com/title/tt6142496/

     

     

    GngRSiQ.png

     

    hsp9fZM.png

     

    Hidden Content

      Give reaction or reply to this topic to see the hidden content.

     

     

    eCmryx5.png

     

    Hidden Content

      Give reaction or reply to this topic to see the hidden content.

     

     

     

    WhnxB5b.png

     

    Hidden Content

      Give reaction or reply to this topic to see the hidden content.


     

    • 11 απαντήσεις
    • 300 views
    • Add Reply

    AMATEUR (2018) HDRip XviD AC3-EVO | ENΣΩΜΑΤΩΜΕΝΟΙ ΥΠΟΤΙΤΛΟΙ

    вирус
    By вирус,
    phaIFPg.jpg
     

    ΣΚΗΝΟΘΕΣΙΑ : Ryan Koo

    ΣΕΝΑΡΙΟ : Ryan Koo

    ΗΘΟΠΟΙΟΙ : Sharon Leal, Josh Charles, Brian White

    ΕΙΔΟΣ : Drama, Sport

    ΠΡΕΜΙΕΡΑ : 6 April 2018 (USA)

     

    ΜΕΤΑΦΡΑΣΗ : DVD

     

     

     

    Ένας ταλαντούχος 14χρονος μπασκετμπολίστας δυσκολεύεται να προσαρμοστεί στη νέα του ομάδα, όταν ένα βίντεο διαδίδεται παντού. Σε σκηνοθεσία του Ράιαν Κου...

     

    d6nyLYG.jpg

     

     

    3sZwobQ.png


     

     

    TEXNIKA XAΡΑΚΤΗΡΙΣΤΙΚΑ

    General


    Format                      : AVI

    Format/Info                 : Audio Video Interleave

    File size                   : 1.38 GiB

    Duration                    : 1 h 36 min

    Overall bit rate            : 2 045 kb/s

    Writing application         : VirtualDubMod 1.5.10.2 (build 2542/release)

    Writing library             : VirtualDubMod build 2542/release

     

    Video

    ID                          : 0

    Format                      : MPEG-4 Visual

    Format profile              : Advanced [email protected]

    Format settings, BVOP       : 1

    Format settings, QPel       : No

    Format settings, GMC        : No warppoints

    Format settings, Matrix     : Default (H.263)

    Muxing mode                 : Packed bitstream

    Codec ID                    : XVID

    Codec ID/Hint               : XviD

    Duration                    : 1 h 36 min

    Bit rate                    : 1 653 kb/s

    Width                       : 720 pixels

    Height                      : 360 pixels

    Display aspect ratio        : 2.000

    Frame rate                  : 23.976 (24000/1001) FPS

    Color space                 : YUV

    Chroma subsampling          : 4:2:0

    Bit depth                   : 8 bits

    Scan type                   : Progressive

    Compression mode            : Lossy

    Bits/(Pixel*Frame)          : 0.266

    Stream size                 : 1.11 GiB (81%)

    Writing library             : XviD 64

     

    Audio

    ID                          : 1

    Format                      : AC-3

    Format/Info                 : Audio Coding 3

    Format settings, Endianness : Big

    Codec ID                    : 2000

    Duration                    : 1 h 36 min

    Bit rate mode               : Constant

    Bit rate                    : 384 kb/s

    Channel(s)                  : 6 channels

    Channel positions           : Front: L C R, Side: L R, LFE

    Sampling rate               : 48.0 kHz

    Frame rate                  : 31.250 FPS (1536 spf)

    Bit depth                   : 16 bits

    Compression mode            : Lossy

    Stream size                 : 265 MiB (19%)

    Alignment                   : Split accross interleaves

    Interleave, duration        : 64  ms (1.53 video frames)

    Interleave, preload duratio : 500  ms

    Service kind                : Complete Main


     

     

    usDrZmS.png

    http://www.imdb.com/title/tt5580392/

     

     

    GngRSiQ.png

     

    hsp9fZM.png

     

    Hidden Content

      Give reaction or reply to this topic to see the hidden content.

     

     

    eCmryx5.png

     

    Hidden Content

      Give reaction or reply to this topic to see the hidden content.

     

     

     

    WhnxB5b.png

     

    Hidden Content

      Give reaction or reply to this topic to see the hidden content.


    • 18 απαντήσεις
    • 342 views
    • Add Reply

    SUN DOGS (2017) HDRip XviD AC3-EVO| ENΣΩΜΑΤΩΜΕΝΟΙ ΥΠΟΤΙΤΛΟΙ

    вирус
    By вирус,
    RuQ43mF.jpg
     

    ΣΚΗΝΟΘΕΣΙΑ : Jennifer Morrison

    ΣΕΝΑΡΙΟ : Raoul McFarland, Anthony Tambakis

    ΗΘΟΠΟΙΟΙ : Allison Janney, Melissa Benoist, Jennifer Morrison

    ΕΙΔΟΣ : Comedy, Drama

    ΠΡΕΜΙΕΡΑ : 18 June 2017 (USA)

     

    ΜΕΤΑΦΡΑΣΗ : Original subs

     

     

     

     

     

    Ένας νεαρός είναι αποφασισμένος να γίνει ήρωας στον στρατό αλλό καταλήγει σε μια λανθασμένη περιπέτεια με την οικογένειά του και την νέα του φίλη την Tally, η οποία τον οδηγεί στην πιο απίθανη συνειδητοποίηση του πώς μπορεί να σώσει ζωές με σθένος....

     

    g2N7Hgi.jpg

     

     

    3sZwobQ.png


     

     

    TEXNIKA XAΡΑΚΤΗΡΙΣΤΙΚΑ

    General


    Format                      : AVI

    Format/Info                 : Audio Video Interleave

    File size                   : 1.61 GiB

    Duration                    : 1 h 33 min

    Overall bit rate            : 2 454 kb/s

    Writing application         : VirtualDubMod 1.5.10.2 (build 2542/release)

    Writing library             : VirtualDubMod build 2542/release

     

    Video

    ID                          : 0

    Format                      : MPEG-4 Visual

    Format profile              : Advanced [email protected]

    Format settings, BVOP       : 1

    Format settings, QPel       : No

    Format settings, GMC        : No warppoints

    Format settings, Matrix     : Default (H.263)

    Muxing mode                 : Packed bitstream

    Codec ID                    : XVID

    Codec ID/Hint               : XviD

    Duration                    : 1 h 33 min

    Bit rate                    : 2 062 kb/s

    Width                       : 720 pixels

    Height                      : 304 pixels

    Display aspect ratio        : 2.35:1

    Frame rate                  : 23.976 (24000/1001) FPS

    Color space                 : YUV

    Chroma subsampling          : 4:2:0

    Bit depth                   : 8 bits

    Scan type                   : Progressive

    Compression mode            : Lossy

    Bits/(Pixel*Frame)          : 0.393

    Stream size                 : 1.35 GiB (84%)

    Writing library             : XviD 64

     

    Audio

    ID                          : 1

    Format                      : AC-3

    Format/Info                 : Audio Coding 3

    Format settings, Endianness : Big

    Codec ID                    : 2000

    Duration                    : 1 h 33 min

    Bit rate mode               : Constant

    Bit rate                    : 384 kb/s

    Channel(s)                  : 6 channels

    Channel positions           : Front: L C R, Side: L R, LFE

    Sampling rate               : 48.0 kHz

    Frame rate                  : 31.250 FPS (1536 spf)

    Bit depth                   : 16 bits

    Compression mode            : Lossy

    Stream size                 : 257 MiB (16%)

    Alignment                   : Split accross interleaves

    Interleave, duration        : 64  ms (1.53 video frames)

    Interleave, preload duratio : 500  ms

    Service kind                : Complete Main


     

     

    usDrZmS.png

    http://www.imdb.com/title/tt5665452/

     

     

    GngRSiQ.png

     

    hsp9fZM.png

     

    Hidden Content

      Give reaction or reply to this topic to see the hidden content.

     

     

    eCmryx5.png

     

    Hidden Content

      Give reaction or reply to this topic to see the hidden content.

     

     

     

    WhnxB5b.png

     

    Hidden Content

      Give reaction or reply to this topic to see the hidden content.


    • 14 απαντήσεις
    • 355 views
    • Add Reply

    ALL THE MONEY IN THE WORLD (2017) BRRip XviD AC3-XVID | ENΣΩΜΑΤΩΜΕΝΟΙ ΥΠΟΤΙΤΛΟΙ

    вирус
    By вирус,
    sXPDxo6.jpg
     

    ΣΚΗΝΟΘΕΣΙΑ : Ridley Scott

    ΣΕΝΑΡΙΟ : David Scarpa, John Pearson

    ΗΘΟΠΟΙΟΙ : Michelle Williams, Christopher Plummer, Mark Wahlberg

    ΕΙΔΟΣ : Biography, Crime, Drama

    ΠΡΕΜΙΕΡΑ : 21 December 2017 (Greece)

     

    ΜΕΤΑΦΡΑΣΗ : AmastriS

     

     

     

    Ρώμη, 1973. Κουκουλοφόροι απαγάγουν ένα 16χρονο αγόρι, τον Τζον Πολ. Ο Τζον Πολ δεν είναι ένας τυχαίος έφηβος, αφού είναι εγγονός του Τζον Πολ Γκέτι, του πιο πλούσιου ανθρώπου στον κόσμο. Ένας πανίσχυρος, δισεκατομμυριούχος μεγιστάνας πετρελαίου, απίστευτα μίζερος, απρόσωπος και τσιγγούνης, ο οποίος αρνείται ευθαρσώς και δημοσίως να πληρώσει τα λύτρα στους απαγωγείς για να σώσει τη ζωή του αγαπημένου του εγγονού. Η αφοσιωμένη και δυναμική μητέρα του Τζον Πολ, η Γκέιλ, παρά τις μάταιες προσπάθειες της να αλλάξει την αμείλικτη στάση του Γκέτι, καλείται να σηκώσει μόνη της το βάρος της απαγωγής και να κάνει τα αδύνατα δυνατά για να σώσει τον γιο της. Σε μια μάχη ενάντια στον χρόνο και τους απαγωγείς να γίνονται ολοένα και περισσότερο πιεστικοί και απειλητικοί για τη ζωή του Πολ, η Γκέιλ αποφασίζει να συμμαχήσει με τον αινιγματικό σωματοφύλακα του Γκέτι, τον Φλέτσερ Τσέις, αναλαμβάνοντας πλήρως τη διάσωση του γιου της....

     

    noEThce.jpg

     

     

    3sZwobQ.png


     

     

    TEXNIKA XAΡΑΚΤΗΡΙΣΤΙΚΑ

    General


    Format                      : AVI

    Format/Info                 : Audio Video Interleave

    File size                   : 1.90 GiB

    Duration                    : 2 h 12 min

    Overall bit rate            : 2 053 kb/s

    Writing application         : VirtualDubMod 1.5.10.2 (build 2542/release)

    Writing library             : VirtualDubMod build 2542/release

     

    Video

    ID                          : 0

    Format                      : MPEG-4 Visual

    Format profile              : Advanced [email protected]

    Format settings, BVOP       : 1

    Format settings, QPel       : No

    Format settings, GMC        : No warppoints

    Format settings, Matrix     : Default (H.263)

    Muxing mode                 : Packed bitstream

    Codec ID                    : XVID

    Codec ID/Hint               : XviD

    Duration                    : 2 h 12 min

    Bit rate                    : 1 597 kb/s

    Width                       : 720 pixels

    Height                      : 302 pixels

    Display aspect ratio        : 2.40:1

    Frame rate                  : 23.976 (24000/1001) FPS

    Color space                 : YUV

    Chroma subsampling          : 4:2:0

    Bit depth                   : 8 bits

    Scan type                   : Progressive

    Compression mode            : Lossy

    Bits/(Pixel*Frame)          : 0.306

    Stream size                 : 1.48 GiB (78%)

    Writing library             : XviD 64

     

    Audio

    ID                          : 1

    Format                      : AC-3

    Format/Info                 : Audio Coding 3

    Format settings, Endianness : Big

    Codec ID                    : 2000

    Duration                    : 2 h 12 min

    Bit rate mode               : Constant

    Bit rate                    : 448 kb/s

    Channel(s)                  : 6 channels

    Channel positions           : Front: L C R, Side: L R, LFE

    Sampling rate               : 48.0 kHz

    Frame rate                  : 31.250 FPS (1536 spf)

    Bit depth                   : 16 bits

    Compression mode            : Lossy

    Stream size                 : 425 MiB (22%)

    Alignment                   : Split accross interleaves

    Interleave, duration        : 64  ms (1.53 video frames)

    Interleave, preload duratio : 500  ms

    Service kind                : Complete Main


     

     

    usDrZmS.png

    http://www.imdb.com/title/tt5294550/

     

     

    GngRSiQ.png

     

    hsp9fZM.png

     

    Hidden Content

      Give reaction or reply to this topic to see the hidden content.

     

     

    eCmryx5.png

     

    Hidden Content

      Give reaction or reply to this topic to see the hidden content.

     

     

     

    WhnxB5b.png

     

    Hidden Content

      Give reaction or reply to this topic to see the hidden content.


    • 49 απαντήσεις
    • 584 views
    • Add Reply

Portal by DevFuse · Based on IP.Board Portal by IPS
×