Μετάβαση στο περιεχόμενο
loufjohn

ΤΟ ΤΑΤΟΥΑΖ (ALPHA tv 2017-) TVRip ΕΩΣ 164

Recommended Posts

ΤΟ ΤΑΤΟΥΑΖ (ALPHA tv 2017-) TVRip

N8tTxAkl.jpg


IaXZX9E.png



ΥΠΟΘΕΣΗ

Το Τατουάζ είναι μια σειρά γεμάτη έρωτα, απαγορευμένους δεσμούς και εγκλήματα πάθους. Μια ερωτική ιστορία γεννιέται κάτω από αντίξοες συνθήκες.
Ένα αστυνομικό θρίλερ με φόντο την Αίγινα και τα Μετέωρα, όπου ένας κατά συρροή δολοφόνος βάζει στο στόχαστρο νεαρές γυναίκες…
 
Η Άννα (Δανάη Παππά) είναι παντρεμένη με τον Τόνυ (Μιχάλης Λεβεντογιάννης) και ζει μόνιμα στο Λονδίνο. Απογοητευμένη από τον γάμο της,
αποφασίζει να πάει διακοπές με τη φίλη της, την Νικόλ (Ελεονώρα Αντωνιάδου) στην Ελλάδα, με σκοπό να συναντήσει τον Αλέξανδρο (Στέφανος Μιχαήλ)
με τον οποίο έχουν γνωριστεί εδώ και ένα χρόνο μέσω Facebook. Η συνάντησή τους θα γεννήσει έναν κεραυνοβόλο έρωτα. Η Άννα με την Νικόλ
θα περάσουν κάποιες ξέγνοιαστες μέρες στην Αίγινα, μέχρι τη στιγμή που ο Αλέξανδρος θα εξαφανιστεί. Η Άννα, γεμάτη αγωνία, θα απευθυνθεί στους γονείς του,
τον Παύλο (Γιώργος Παρτσαλάκης) και την Μάρθα (Ελίνα Ακριτίδου). Και οι τρεις μαζί θα ψάξουν τον Αλέξανδρο στο σπίτι του. Εκεί θα τους περιμένει μια δυσάρεστη έκπληξη…
 
Λίγες μέρες μετά εξαφανίζεται μυστηριωδώς και η Άννα. Το γεγονός αυτό θα αναγκάσει τον Θεοχάρη (Απόστολος Γκλέτσος), πατέρα της Άννας,
να έρθει στην Ελλάδα, για να την αναζητήσει. Η νέα σύντροφός του, Βέρα (Εβελίνα Παπούλια) του συμπαραστέκεται αναλαμβάνοντας να φροντίσει την Αμαλία (Μυρτώ Αλικάκη),
γυναίκα τού Θεοχάρη και μητέρα της Άννας, η οποία αντιμετωπίζει ένα πολύ σοβαρό θέμα υγείας.
 
Το σενάριο υπογράφει η Βάνα Δημητρίου και τη σκηνοθεσία ο Αντρέας Γεωργίου, ο Στάμος Τσάμης και ο Κώστας Αναγνωστόπουλος.
 
Πρωταγωνιστούν: Στέφανος Μιχαήλ, Δανάη Παππά, Εβελίνα Παπούλια, Μυρτώ Αλικάκη, Ελίνα Ακριτίδου, Χρύσα Παππά, Κατερίνα Γερονικολού, Χριστίνα Χριστόφια,
Νίκος Πολυδερόπουλος, Μιχάλης Λεβεντογιάννης, Έλενα Λιασίδου, Ελεονώρα Αντωνιάδου, Έλενα Πιερίδου, Ιάσονας Δαμιανός, Αλέξανδρος Πέρρος, Φανή Καμπιώτη.
Στον ρόλο του Παύλου Μελά, ο Γιώργος Παρτσαλάκης
Στον ρόλο της Μαργκός Νίβεν, η Κοραλία Καράντη
Στον ρόλο του Θεοχάρη Ραζή, ο Απόστολος Γκλέτσος.


6KTXyhc.png

Ov3igrEl.jpg

sNfCVWD.png


   General
      Complete name :SHMADI.EP.01-02.avi
      Format : AVI
      Format/Info : Audio Video Interleave
      File size : 1.41 GiB
      Duration : 1 h 47 min
      Overall bit rate : 1 889 kb/s
   Video #0
      ID : 0
      Format : AVC
      Format/Info : Advanced Video Codec
      Format profile : [email protected]
      Format settings, CABAC : No
      Format settings, ReFrames : 1 frame
      Codec ID : H264
      Duration : 1 h 47 min
      Bit rate : 1 748 kb/s
      Width : 640 pixels
      Height : 352 pixels
      Display aspect ratio : 16:9
      Frame rate : 25.000 FPS
      Color space : YUV
      Chroma subsampling : 4:2:0
      Bit depth : 8 bits
      Scan type : Progressive
      Bits/(Pixel*Frame) : 0.310
      Stream size : 1.31 GiB (93%)
      Writing library : x264 core 146 r2538 121396c

   Audio #1
      ID : 1
      Format : MPEG Audio
      Format version : Version 1
      Format profile : Layer 3
      Codec ID : 55
      Codec ID/Hint : MP3
      Duration : 1 h 47 min
      Bit rate mode : Constant
      Bit rate : 128 kb/s
      Channel(s) : 2 channels
      Sampling rate : 48.0 kHz
      Compression mode : Lossy
      Stream size : 98.1 MiB (7%)
      Alignment : Aligned on interleaves
      Interleave, duration : 24  ms (0.60 video frame)
 
2V9nbDH.png

[media=YOUTUBE]

[/media]



eKydSyt.jpg


zPAQxlN.png


A3VtJrt.png
                        

Hidden Content

    Give reaction or reply to this topic to see the hidden content.

 

Edited by loufjohn
  • Like 10
  • Thanks 1

Μοιράσου αυτή την δημοσίευση


Link to post
Share on other sites

Δημιουργήστε ένα λογαριασμό ή συνδεθείτε προκειμένου να αφήσετε κάποιο σχόλιο

Πρέπει να είστε μέλος για να μπορέσετε να αφήσετε κάποιο σχόλιο

Δημιουργία λογαριασμού

Κάντε μια δωρεάν εγγραφή στην κοινότητά μας. Είναι εύκολο!

Εγγραφή νέου λογαριασμού

Σύνδεση

Εάν έχετε ήδη λογαριασμό; Συνδεθείτε εδώ.

Συνδεθείτε τώρα

×