Μετάβαση στο περιεχόμενο

Recommended Posts

LA PASTA POMILΩRI (2017-) ANT1 WEBRip


molZbHpl.jpg




IaXZX9E.png

Πόσοι γνωρίζουν ότι η ντομάτα ονομάζεται και «φρούτο του έρωτα» …ναι αλήθεια … και σε αυτή την γλυκιά σειρά με αυτό θα ασχοληθούμε ..με αυτό το ολοκόκκινο φρούτο
του πάθους αλλά και με τον .. έρωτα ..
Ας μπούμε σε κάποια γειτονιά λοιπόν … φτωχική ,γραφική γειτονιά … που χαρούμενοι άνθρωποι εκεί έχουν πάντα γιορτή και μοιράζουνε φιλιά … που έχει νέες αλλά και γριές
που για τον έρωτα μιλούν και άσε που μέρα νύχτα τραγουδούν κλπ κλπ… τι θα γίνει όμως όταν κάποιοι έρθουν για τους πάρουν αυτό τον χαρούμενο κόσμο …
Τι θα γίνει; … αντί άσπρες κορδέλες που τα κορίτσια φοράνε θα τα βάψουνε μαύρα και θα σβήσουν το χαμόγελο … ή θα κάνουν τα πάντα για την γειτονιά τη γη
και την ζωή τους … ;
πάμε να το μάθουμε μαζί τους …  πάμε να ζήσουμε εκεί που όλοι κατά βάθος θα θέλαμε … σε μια τέτοια χωριού γειτονιά … πάμε να καλλιεργήσουμε μαζί τους
το φρούτο του έρωτα και να φτιάξουμε την ωραιότερη μακαρονάδα με κόκκινη σάλτσα .. la pasta pomilώri λοιπόν … και καλή όρεξη …
Ηθοποιοί: Ηράκλης Γιωργαλλής, Κώστας Καζάκας, Μαρούσα Αβρααμίδου, Βαλεντίνα Σοφοκλέους, Λιάνα Χαλκιά, Λώρης Λοϊζίδης, Μάριος Δημητρίου, Φώτης Γιωργίδης,
Πανίκος Πιλάλης, Μαριάννα Σάντη, Λουκία Πρωτοπαπά, Μαρία Μαστρίδου, Βίκτωρ Νικολαϊδης, Κωνσταντίνος Σωκράτους, Βιντζέσο Λορούσσο.

6KTXyhc.png

2FkGG94l.jpg


sNfCVWD.png


   General
      Complete name :LA.PASTA.EP.01.avi
      Format : AVI
      Format/Info : Audio Video Interleave
      File size : 1.20 GiB
      Duration : 46 min 0 s
      Overall bit rate : 3 725 kb/s
   Video #0
      ID : 0
      Format : AVC
      Format/Info : Advanced Video Codec
      Format profile : [email protected]
      Format settings, CABAC : No
      Format settings, ReFrames : 1 frame
      Codec ID : H264
      Duration : 46 min 0 s
      Bit rate : 3 579 kb/s
      Width : 960 pixels
      Height : 540 pixels
      Display aspect ratio : 16:9
      Frame rate : 50.000 FPS
      Color space : YUV
      Chroma subsampling : 4:2:0
      Bit depth : 8 bits
      Scan type : Progressive
      Bits/(Pixel*Frame) : 0.138
      Stream size : 1.15 GiB (96%)
      Writing library : x264 core 146 r2538 121396c
      
   Audio #1
      ID : 1
      Format : MPEG Audio
      Format version : Version 1
      Format profile : Layer 3
      Codec ID : 55
      Codec ID/Hint : MP3
      Duration : 46 min 0 s
      Bit rate mode : Constant
      Bit rate : 128 kb/s
      Channel(s) : 2 channels
      Sampling rate : 48.0 kHz
      Compression mode : Lossy
      Stream size : 42.1 MiB (3%)
      Alignment : Aligned on interleaves
      Interleave, duration : 24  ms (1.20 video frame)  

 

2V9nbDH.png

[media=YOUTUBE]http://www.youtube.com/watch?v=udCJnBOOQVg[/media]

eKydSyt.jpg


zPAQxlN.png



A3VtJrt.png

Hidden Content

    Give reaction or reply to this topic to see the hidden content.

 

 

 

 

Edited by loufjohn
  • Like 1

Μοιράσου αυτή την δημοσίευση


Link to post
Share on other sites

Δημιουργήστε ένα λογαριασμό ή συνδεθείτε προκειμένου να αφήσετε κάποιο σχόλιο

Πρέπει να είστε μέλος για να μπορέσετε να αφήσετε κάποιο σχόλιο

Δημιουργία λογαριασμού

Κάντε μια δωρεάν εγγραφή στην κοινότητά μας. Είναι εύκολο!

Εγγραφή νέου λογαριασμού

Σύνδεση

Εάν έχετε ήδη λογαριασμό; Συνδεθείτε εδώ.

Συνδεθείτε τώρα

×