Μετάβαση στο περιεχόμενο
loufjohn

ΟΙ ΑΠΙΘΑΝΕΣ / GUAPAS ERT3 (2017-) WEBRip ΕΛ. ΥΠΟΤΙΤΛΟΙ ΕΩΣ 116

Recommended Posts

ΟΙ ΑΠΙΘΑΝΕΣ / GUAPAS ERT3 (2017-) WEBRip ΕΛ. ΥΠΟΤΙΤΛΟΙ


6RLJL0Dl.jpg



IaXZX9E.png

Σειρά παραγωγής Pol-ka producciones που θα ολοκληρωθεί σε 173 ωριαία επεισόδια.

Η Μόνικα , η Μέι, η Λορένα, η Λάουρα και η Άντρεα γνωρίζονται κατά την διάρκεια μιας πορείας διαμαρτυρίας εναντίον μιας τράπεζας η οποία κλείνει ξαφνικά
και έτσι χάνουν οι αποταμιεύσεις τους. Έτσι από την μια μέρα στην άλλη τα όνειρα και τα σχέδια της καθεμιάς τους χάνονται: το εστιατόριο της Μόνικα πρέπει
να κλείσει, η Λορένα δεν μπορεί να αγοράσει σπίτι για τους γονείς της, η Μέι χάνει την οικογενειακή περιουσία, η Λάουρα χάνει τις αποταμιεύσεις της για
την θεραπεία γονιμότητας και η Άντρεα με τον άντρα της μένουν στον άσσο.
Εφτά χρόνια αργότερα έχουν γίνει κολλητές αλλά ακόμα δεν έχουν ξεπεράσει εκείνη την ήμερα, ενώ ψάχνουν ακόμα τον τρόπο να σταθούν οικονομικά .
Χρειάζονται ένα νέο «ταρακούνημα» στην ζωή τους για να σκεφτούν τις προσωπικές τους ιστορίες. Κάτι σαν μια δεύτερη ευκαιρία. Μία τελευταία για να ερωτευτούν,
δημιουργήσουν οικογένεια, ακολουθήσουν τα ταλέντα τους, γιατρέψουν τις πληγές τους. Ή απλά για να νικήσουν τους φόβους τους που ακόμα τις κρατάν πίσω και τις
δεν επιτρέπουν να ζήσουν την ζωή που θέλουν.

Παίζουν: Araceli Gonzalez, Isabel Macedo, Mercedes Moran, Carla Peterson, Florencia Bertotti.
Παραγωγή: Αργεντινής
Σκηνοθεσία: Daniel Barone, Lucas Gil
Σενάριο: Leandro Calderone,Carolina Aguirre


6KTXyhc.png

blZEaL5l.jpg


sNfCVWD.png



   General
      Complete name :OI.APITHANES.EP.01.avi
      Format : AVI
      Format/Info : Audio Video Interleave
      File size : 1.11 GiB
      Duration : 55 min 35 s
      Overall bit rate : 2 846 kb/s
   Video #0
      ID : 0
      Format : AVC
      Format/Info : Advanced Video Codec
      Format profile : [email protected]
      Format settings, CABAC : No
      Format settings, ReFrames : 1 frame
      Codec ID : H264
      Duration : 55 min 35 s
      Bit rate : 2 704 kb/s
      Width : 864 pixels
      Height : 480 pixels
      Display aspect ratio : 16:9
      Frame rate : 25.000 FPS
      Color space : YUV
      Chroma subsampling : 4:2:0
      Bit depth : 8 bits
      Scan type : Progressive
      Bits/(Pixel*Frame) : 0.261
      Stream size : 1.05 GiB (95%)
      Writing library : x264 core 146 r2555 0c21480
     
   Audio #1
      ID : 1
      Format : MPEG Audio
      Format version : Version 1
      Format profile : Layer 3
      Codec ID : 55
      Codec ID/Hint : MP3
      Duration : 55 min 35 s
      Bit rate mode : Constant
      Bit rate : 128 kb/s
      Channel(s) : 2 channels
      Sampling rate : 48.0 kHz
      Compression mode : Lossy
      Stream size : 50.9 MiB (4%)
      Alignment : Aligned on interleaves
      Interleave, duration : 24  ms (0.60 video frame)
 

fxZhAEdl.png



2V9nbDH.png

[media=YOUTUBE]

[/media]

eKydSyt.jpg


zPAQxlN.png



A3VtJrt.png

Hidden Content

    Give reaction or reply to this topic to see the hidden content.

 

Edited by loufjohn
  • Like 1

Μοιράσου αυτή την δημοσίευση


Link to post
Share on other sites

Δημιουργήστε ένα λογαριασμό ή συνδεθείτε προκειμένου να αφήσετε κάποιο σχόλιο

Πρέπει να είστε μέλος για να μπορέσετε να αφήσετε κάποιο σχόλιο

Δημιουργία λογαριασμού

Κάντε μια δωρεάν εγγραφή στην κοινότητά μας. Είναι εύκολο!

Εγγραφή νέου λογαριασμού

Σύνδεση

Εάν έχετε ήδη λογαριασμό; Συνδεθείτε εδώ.

Συνδεθείτε τώρα

×