Μετάβαση στο περιεχόμενο
вирус

GEOSTORM (2017) BRRip XviD AC3-RARBG | ENΣΩΜΑΤΩΜΕΝΟΙ ΥΠΟΤΙΤΛΟΙ

Recommended Posts

I8wkZIb.jpg
 

ΣΚΗΝΟΘΕΣΙΑ : Dean Devlin

ΣΕΝΑΡΙΟ : Dean Devlin, Paul Guyot

ΗΘΟΠΟΙΟΙ : Gerard Butler, Jim Sturgess, Abbie Cornish

ΕΙΔΟΣ : Action, Sci-Fi, Thriller

ΠΡΕΜΙΕΡΑ : 19 October 2017 (Greece)

 

ΜΕΤΑΦΡΑΣΗ : Drakontas[GTRD-movies]

 

 

Μετά από μια άνευ προηγουμένου σειρά φυσικών καταστροφών, οι παγκόσμιοι ηγέτες αποφασίζουν να δημιουργήσουν ένα σύνθετο δίκτυο δορυφόρων προκειμένου να μπορέσουν να ελέγξουν τις κλιματικές αλλαγές και να κρατήσουν τον πλανήτη ασφαλή. Όμως μετά από δύο χρόνια ομαλής λειτουργίας, το σύστημα που κατασκευάστηκε για να προστατέψει τη Γη αρχίζει να "επιτίθεται" στο κλίμα. Ο ειδικός επιστήμονας και πρώην αστροναύτης Jake Lawson (Gerard Butler), με τη βοήθεια του αδελφού του, Max (Jim Sturgess), θα αναλάβουν να λύσουν το πρόβλημα του δικτύου δορυφόρων. Μόνο που θα πρέπει να εντοπίσουν την αιτία, πριν μια επικών διαστάσεων καταιγίδα καταστρέψει τα πάντα και τους πάντες στο πέρασμά της.

 

fsoqk0Q.jpg

 

 

3sZwobQ.png


 

 

 

TEXNIKA XAΡΑΚΤΗΡΙΣΤΙΚΑ

General


Format                      : AVI

Format/Info                 : Audio Video Interleave

File size                   : 1.57 GiB

Duration                    : 1 h 49 min

Overall bit rate            : 2 053 kb/s

Writing application         : VirtualDubMod 1.5.10.2 (build 2542/release)

Writing library             : VirtualDubMod build 2542/release

 

Video

ID                          : 0

Format                      : MPEG-4 Visual

Format profile              : Advanced [email protected]

Format settings, BVOP       : 1

Format settings, QPel       : No

Format settings, GMC        : No warppoints

Format settings, Matrix     : Default (H.263)

Muxing mode                 : Packed bitstream

Codec ID                    : XVID

Codec ID/Hint               : XviD

Duration                    : 1 h 49 min

Bit rate                    : 1 598 kb/s

Width                       : 720 pixels

Height                      : 302 pixels

Display aspect ratio        : 2.40:1

Frame rate                  : 23.976 (24000/1001) FPS

Color space                 : YUV

Chroma subsampling          : 4:2:0

Bit depth                   : 8 bits

Scan type                   : Progressive

Compression mode            : Lossy

Bits/(Pixel*Frame)          : 0.306

Stream size                 : 1.22 GiB (78%)

Writing library             : XviD 64

 

Audio

ID                          : 1

Format                      : AC-3

Format/Info                 : Audio Coding 3

Format settings, Endianness : Big

Codec ID                    : 2000

Duration                    : 1 h 49 min

Bit rate mode               : Constant

Bit rate                    : 448 kb/s

Channel(s)                  : 6 channels

Channel positions           : Front: L C R, Side: L R, LFE

Sampling rate               : 48.0 kHz

Frame rate                  : 31.250 FPS (1536 spf)

Bit depth                   : 16 bits

Compression mode            : Lossy

Stream size                 : 350 MiB (22%)

Alignment                   : Split accross interleaves

Interleave, duration        : 64  ms (1.53 video frames)

Interleave, preload duratio : 500  ms

Service kind                : Complete Main


 

 

 

usDrZmS.png

http://www.imdb.com/title/tt1981128/

 

 

GngRSiQ.png

 

hsp9fZM.png

 

Hidden Content

    Give reaction or reply to this topic to see the hidden content.

 

 

eCmryx5.png

 

Hidden Content

    Give reaction or reply to this topic to see the hidden content.

 

 

 

2 LINK

 

hsp9fZM.png

 

Hidden Content

    Give reaction or reply to this topic to see the hidden content.


  • Like 2

Μοιράσου αυτή την δημοσίευση


Link to post
Share on other sites

Δημιουργήστε ένα λογαριασμό ή συνδεθείτε προκειμένου να αφήσετε κάποιο σχόλιο

Πρέπει να είστε μέλος για να μπορέσετε να αφήσετε κάποιο σχόλιο

Δημιουργία λογαριασμού

Κάντε μια δωρεάν εγγραφή στην κοινότητά μας. Είναι εύκολο!

Εγγραφή νέου λογαριασμού

Σύνδεση

Εάν έχετε ήδη λογαριασμό; Συνδεθείτε εδώ.

Συνδεθείτε τώρα

×