Μετάβαση στο περιεχόμενο
вирус

YOUTH IN OREGON (2016) HDRip XviD AC3-EVO | ENΣΩΜΑΤΩΜΕΝΟΙ ΥΠΟΤΙΤΛΟΙ

Recommended Posts

IFofM8A.jpg
 

ΣΚΗΝΟΘΕΣΙΑ : Joel David Moore

ΣΕΝΑΡΙΟ :  Andrew Eisen

ΗΘΟΠΟΙΟΙ : Frank Langella, Billy Crudup, Christina Applegate

ΕΙΔΟΣ : Comedy, Drama

ΠΡΕΜΙΕΡΑ : 3 February 2017 (USA)

 

ΜΕΤΑΦΡΑΣΗ : Άγνωστος

 

 

 

Όταν ο 82χρονος κι αφόρητος Ρέιμοντ Ίνγκερσολ ανακοινώνει στην οικογένεια του ότι έχει κάνει ήδη τους διακανονισμούς για ευθανασία του στο Όρεγκον, η κόρη του, η Κέιτ, αποφασίζει να τον σταματήσει. Αλλά όταν ένα νέο οικογενειακό ζήτημα εμφανίζεται, η σύζυγος της Κέιτ, ο Μπράιαν, βρίσκεται με το άτυχο καθήκον να οδηγήσει αυτός τον πεθερό του από τη Νέα Υόρκη στο Όρεγκον, και να πείσει καθοδόν τον Ρέιμοντ ότι δεν θέλει πραγματικά να πεθάνει. Το μεγάλο πρόβλημα είναι ότι ο γέρο-Ρέιμοντ μισεί τον γαμπρό του. Κι έχουν μπροστά τους 3.000 μίλια δρόμο...

 

s24OA1i.jpg

 

 

3sZwobQ.png


 

 

TEXNIKA XAΡΑΚΤΗΡΙΣΤΙΚΑ

General


Format                      : AVI

Format/Info                 : Audio Video Interleave

File size                   : 1.36 GiB

Duration                    : 1 h 39 min

Overall bit rate            : 1 961 kb/s

Writing application         : VirtualDubMod 1.5.10.2 (build 2542/release)

Writing library             : VirtualDubMod build 2542/release

 

Video

ID                          : 0

Format                      : MPEG-4 Visual

Format profile              : Advanced [email protected]

Format settings, BVOP       : 1

Format settings, QPel       : No

Format settings, GMC        : No warppoints

Format settings, Matrix     : Default (H.263)

Muxing mode                 : Packed bitstream

Codec ID                    : XVID

Codec ID/Hint               : XviD

Duration                    : 1 h 39 min

Bit rate                    : 1 569 kb/s

Width                       : 720 pixels

Height                      : 304 pixels

Display aspect ratio        : 2.35:1

Frame rate                  : 23.976 (24000/1001) FPS

Color space                 : YUV

Chroma subsampling          : 4:2:0

Bit depth                   : 8 bits

Scan type                   : Progressive

Compression mode            : Lossy

Bits/(Pixel*Frame)          : 0.299

Stream size                 : 1.09 GiB (80%)

Writing library             : XviD 64

 

Audio

ID                          : 1

Format                      : AC-3

Format/Info                 : Audio Coding 3

Format settings, Endianness : Big

Codec ID                    : 2000

Duration                    : 1 h 39 min

Bit rate mode               : Constant

Bit rate                    : 384 kb/s

Channel(s)                  : 6 channels

Channel positions           : Front: L C R, Side: L R, LFE

Sampling rate               : 48.0 kHz

Frame rate                  : 31.250 FPS (1536 spf)

Bit depth                   : 16 bits

Compression mode            : Lossy

Stream size                 : 273 MiB (20%)

Alignment                   : Split accross interleaves

Interleave, duration        : 64  ms (1.53 video frames)

Interleave, preload duratio : 500  ms

Service kind                : Complete Main


 

 

usDrZmS.png

http://www.imdb.com/title/tt3687316/

 

 

GngRSiQ.png

 

hsp9fZM.png

 

Hidden Content

    Give reaction or reply to this topic to see the hidden content.

 

 

eCmryx5.png

 

Hidden Content

    Give reaction or reply to this topic to see the hidden content.

 

 

 

1 LINK

 

hsp9fZM.png

 

Hidden Content

    Give reaction or reply to this topic to see the hidden content.


Μοιράσου αυτή την δημοσίευση


Link to post
Share on other sites

Δημιουργήστε ένα λογαριασμό ή συνδεθείτε προκειμένου να αφήσετε κάποιο σχόλιο

Πρέπει να είστε μέλος για να μπορέσετε να αφήσετε κάποιο σχόλιο

Δημιουργία λογαριασμού

Κάντε μια δωρεάν εγγραφή στην κοινότητά μας. Είναι εύκολο!

Εγγραφή νέου λογαριασμού

Σύνδεση

Εάν έχετε ήδη λογαριασμό; Συνδεθείτε εδώ.

Συνδεθείτε τώρα

×