Μετάβαση στο περιεχόμενο
вирус

SEE YOU UP THERE / AU REVOIR LA-HAUT (2017) FRENCH BDRip XviD AC3-EXTREME | ENΣΩΜ/ΥΠ

Recommended Posts

KWixe0Q.jpg
 

ΣΚΗΝΟΘΕΣΙΑ : Albert Dupontel

ΣΕΝΑΡΙΟ : Albert Dupontel

ΗΘΟΠΟΙΟΙ : Nahuel Pérez Biscayart, Albert Dupontel, Laurent Lafitte

ΕΙΔΟΣ : Drama

ΠΡΕΜΙΕΡΑ : 22 Μαρτίου 2018

 

ΜΕΤΑΦΡΑΣΗ : Calamity Jane

 

 

 

Νοέμβριος του 1918. Λίγες ημέρες πριν την παύση πυρός του Α` Παγκοσμίου, ο Εντβάρντ Περικούρ σώζει τη ζωή του Αλμπέρτ Μειγάρ. Οι δυο αυτοί άντρες δεν έχουν τίποτα κοινό, πέρα από τη συμμετοχή τους στον πόλεμο. Ο υπολοχαγός Πραντέγ, διατάζοντας μια παράλογη επίθεση, καταστρέφει τις ζωές τους, ενώ την ίδια στιγμή χτίζει τη φιλία τους. Στα ερείπια της σφαγής του πολέμου, αποφασισμένοι να ζήσουν, οι δυο τους κάνουν προσπάθεια επιβίωσης. Κι ενώ ο Πλαντέγ είναι έτοιμος να κάνει μια περιουσία με τα πτώματα του θυμάτων, ο Αλμπέρτ και ο Εντβάρντ σκαρφίζονται μια επική απάτη με τα μνημόσυνα των αποστερημένων οικογενειών....

 

XgoX21i.jpg

 

 

3sZwobQ.png


 

 

TEXNIKA XAΡΑΚΤΗΡΙΣΤΙΚΑ

General


Format                      : AVI

Format/Info                 : Audio Video Interleave

Format profile              : OpenDML

File size                   : 2.06 GiB

Duration                    : 1 h 56 min

Overall bit rate            : 2 525 kb/s

Writing application         : VirtualDubMod 1.5.10.2 (build 2542/release)

Writing library             : VirtualDubMod build 2542/release

 

Video

ID                          : 0

Format                      : MPEG-4 Visual

Format profile              : Advanced [email protected]

Format settings, BVOP       : 1

Format settings, QPel       : No

Format settings, GMC        : No warppoints

Format settings, Matrix     : Default (H.263)

Muxing mode                 : Packed bitstream

Codec ID                    : XVID

Codec ID/Hint               : XviD

Duration                    : 1 h 56 min

Bit rate                    : 2 131 kb/s

Width                       : 720 pixels

Height                      : 304 pixels

Display aspect ratio        : 2.35:1

Frame rate                  : 24.000 FPS

Color space                 : YUV

Chroma subsampling          : 4:2:0

Bit depth                   : 8 bits

Scan type                   : Progressive

Compression mode            : Lossy

Bits/(Pixel*Frame)          : 0.406

Stream size                 : 1.74 GiB (84%)

Writing library             : XviD 64

 

Audio

ID                          : 1

Format                      : AC-3

Format/Info                 : Audio Coding 3

Format settings, Endianness : Big

Codec ID                    : 2000

Duration                    : 1 h 56 min

Bit rate mode               : Constant

Bit rate                    : 384 kb/s

Channel(s)                  : 6 channels

Channel positions           : Front: L C R, Side: L R, LFE

Sampling rate               : 48.0 kHz

Frame rate                  : 31.250 FPS (1536 spf)

Bit depth                   : 16 bits

Compression mode            : Lossy

Stream size                 : 321 MiB (15%)

Alignment                   : Split accross interleaves

Interleave, duration        : 64  ms (1.54 video frames)

Interleave, preload duratio : 500  ms

Service kind                : Complete Main


 

 

usDrZmS.png

http://www.imdb.com/title/tt5258850/

 

 

GngRSiQ.png

 

hsp9fZM.png

 

Hidden Content

    Give reaction or reply to this topic to see the hidden content.

 

 

eCmryx5.png

 

Hidden Content

    Give reaction or reply to this topic to see the hidden content.

 

 

 

PREMIUM LINKS

 

hsp9fZM.png

 

Hidden Content

    Give reaction or reply to this topic to see the hidden content.


Μοιράσου αυτή την δημοσίευση


Link to post
Share on other sites

Δημιουργήστε ένα λογαριασμό ή συνδεθείτε προκειμένου να αφήσετε κάποιο σχόλιο

Πρέπει να είστε μέλος για να μπορέσετε να αφήσετε κάποιο σχόλιο

Δημιουργία λογαριασμού

Κάντε μια δωρεάν εγγραφή στην κοινότητά μας. Είναι εύκολο!

Εγγραφή νέου λογαριασμού

Σύνδεση

Εάν έχετε ήδη λογαριασμό; Συνδεθείτε εδώ.

Συνδεθείτε τώρα

×