Μετάβαση στο περιεχόμενο
.::Devil::.

STAR WARS: THE LAST JEDI (2017) 720p BRRip XViD AC3-XVID | ΕΝΣΩΜΑΤΩΜΕΝΟΙ ΥΠΟΤΙΤΛΟΙ

Recommended Posts

STAR WARS: THE LAST JEDI (2017)


Star_Wars_The_Last_Jedi_2017.jpg



Ελληνικός Τίτλος: Ο Πόλεμος των Άστρων: Επεισόδιο 8 - Οι Τελευταίοι Τζεντάι
Είδος Ταινίας: Action, Adventure, Fantasy
Σκηνοθέτης: Rian Johnson
Σεναριογράφος: Rian Johnson, George Lucas (based on characters created by)
Ηθοποιοί: Daisy Ridley, John Boyega, Mark Hamill
Υπότιτλοι: Ενσωματωμένοι Ελληνικοί Υπότιτλοι
Πρεμιέρα: 14 December 2017 (Greece)
Μετάφραση: STAUROS SFTeam


IMDB.png


ΥπόθεΣη:

Η Ρέι ξεκινάει τη δύσκολη εκπαίδευση πάνω στα αρχαία μυστήρια της Δύναμης, στο πλάι του ερημίτη Τζεντάι Λουκ Σκάιγουοκερ. Ο τελευταίος αισθάνεται ότι δεν γνωρίζει τα πάντα για αυτήν, ενώ και η Ρέι πασχίζει να επαναφέρει στη μάχη τον Λουκ. Την ίδια ώρα, οι επαναστατικές δυνάμεις βάλλονται οργανωμένα κατά του στόλου του Πρώτου Τάγματος, βρισκόμενοι σε δεινή θέση, κι ενώ εκκρεμεί μαζική επίθεση του στόλου για την κατάκτηση του γαλαξία.


Τεχνικά Χαρακτηριστικά:


General
Format : AVI
Format/Info : Audio Video Interleave
Format profile : OpenDML
File size : 4.69 GiB
Duration : 2 h 31 min
Overall bit rate : 4 423 kb/s
Writing library : VirtualDub build 35491/release

Video
ID : 0
Format : MPEG-4 Visual
Format profile : Advanced [email protected]
Format settings : BVOP2
Format settings, BVOP : 2
Format settings, QPel : No
Format settings, GMC : No warppoints
Format settings, Matrix : Default (H.263)
Muxing mode : Packed bitstream
Codec ID : XVID
Codec ID/Hint : XviD
Duration : 2 h 31 min
Bit rate : 3 774 kb/s
Width : 1 280 pixels
Height : 536 pixels
Display aspect ratio : 2.40:1
Frame rate : 23.976 (24000/1001) FPS
Color space : YUV
Chroma subsampling : 4:2:0
Bit depth : 8 bits
Scan type : Progressive
Compression mode : Lossy
Bits/(Pixel*Frame) : 0.229
Stream size : 4.00 GiB (85%)
Writing library : XviD 67

Audio
ID : 1
Format : AC-3
Format/Info : Audio Coding 3
Codec ID : 2000
Duration : 2 h 31 min
Bit rate mode : Constant
Bit rate : 640 kb/s
Channel(s) : 6 channels
Channel positions : Front: L C R, Side: L R, LFE
Sampling rate : 48.0 kHz
Frame rate : 31.250 FPS (1536 SPF)
Bit depth : 16 bits
Compression mode : Lossy
Stream size : 695 MiB (14%)
Alignment : Aligned on interleaves
Interleave, duration : 42 ms (1.00 video frame)
Interleave, preload duratio : 512 ms
Service kind : Complete Main



Star.Wars.The.Last.Jedi.2017.720p.BRRip.



download_links.png


EASYBYTEZ_LOGO.png


Hidden Content

    Give reaction or reply to this topic to see the hidden content.


COOLBYTEZ_LOGO.png


Hidden Content

    Give reaction or reply to this topic to see the hidden content.


21abivr.jpg

  • Like 1

Μοιράσου αυτή την δημοσίευση


Link to post
Share on other sites

Δημιουργήστε ένα λογαριασμό ή συνδεθείτε προκειμένου να αφήσετε κάποιο σχόλιο

Πρέπει να είστε μέλος για να μπορέσετε να αφήσετε κάποιο σχόλιο

Δημιουργία λογαριασμού

Κάντε μια δωρεάν εγγραφή στην κοινότητά μας. Είναι εύκολο!

Εγγραφή νέου λογαριασμού

Σύνδεση

Εάν έχετε ήδη λογαριασμό; Συνδεθείτε εδώ.

Συνδεθείτε τώρα

×