Μετάβαση στο περιεχόμενο
.::Devil::.

ANNIHILATION (2018) 720p WEBRip XViD AC3-FGT | ΕΝΣΩΜΑΤΩΜΕΝΟΙ ΥΠΟΤΙΤΛΟΙ

Recommended Posts

ANNIHILATION (2018)


AFANISMOS_2018.jpg



Ελληνικός Τίτλος: Αφανισμός
Είδος Ταινίας: Adventure, Drama, Fantasy
Σκηνοθέτης: Alex Garland
Σεναριογράφος: Alex Garland (written for the screen by), Jeff VanderMeer (based on the novel by)
Ηθοποιοί: Natalie Portman, Jennifer Jason Leigh, Tessa Thompson
Υπότιτλοι: Ενσωματωμένοι Ελληνικοί Υπότιτλοι
Πρεμιέρα: 23 February 2018 (USA)
Μετάφραση: Άγνωστος


IMDB.png


ΥπόθεΣη:

Μια ομάδα τεσσάρων γυναικών (μια βιολόγος, μια ανθρωπολόγος, μια ψυχολόγος και μια τοπογράφος) βρίσκονται σε μια άγνωστη περιοχή, γνωστή ως Περιοχή Χ. Το μέρος είναι εγκαταλελειμμένο και αποκομμένο από τον υπόλοιπο πολιτισμό, ενώ αυτή είναι η δωδέκατη εξερευνητική ομάδα που το επισκέπτεται. Αλλά όλες οι υπόλοιπες έχουν χτυπηθεί από εξαφανίσεις, αυτοκτονίες, επιθετικούς καρκίνους και ψυχικά τραύματα.


Τεχνικά Χαρακτηριστικά:


General
Format : AVI
Format/Info : Audio Video Interleave
Format profile : OpenDML
File size : 3.69 GiB
Duration : 1 h 55 min
Overall bit rate : 4 573 kb/s
Writing library : VirtualDub build 35491/release

Video
ID : 0
Format : MPEG-4 Visual
Format settings, BVOP : No
Format settings, QPel : No
Format settings, GMC : No warppoints
Format settings, Matrix : Default (H.263)
Codec ID : DX50
Codec ID/Hint : DivX 5
Duration : 1 h 55 min
Bit rate : 4 179 kb/s
Nominal bit rate : 9 708 kb/s
Width : 1 280 pixels
Height : 536 pixels
Display aspect ratio : 2.40:1
Frame rate : 23.976 (24000/1001) FPS
Color space : YUV
Chroma subsampling : 4:2:0
Bit depth : 8 bits
Scan type : Progressive
Compression mode : Lossy
Bits/(Pixel*Frame) : 0.254
Stream size : 3.37 GiB (91%)
Writing library : DivX 6.8.5 (UTC 2009-08-20)

Audio
ID : 1
Format : AC-3
Format/Info : Audio Coding 3
Codec ID : 2000
Duration : 1 h 55 min
Bit rate mode : Constant
Bit rate : 384 kb/s
Channel(s) : 6 channels
Channel positions : Front: L C R, Side: L R, LFE
Sampling rate : 48.0 kHz
Frame rate : 31.250 FPS (1536 SPF)
Bit depth : 16 bits
Compression mode : Lossy
Stream size : 317 MiB (8%)
Alignment : Aligned on interleaves
Interleave, duration : 42 ms (1.00 video frame)
Interleave, preload duratio : 512 ms
Service kind : Complete Main


 

Annihilation.2018.720p.WEBRip.Xvi_D.AC3-



download_links.png


EASYBYTEZ_LOGO.png


Hidden Content

    Give reaction or reply to this topic to see the hidden content.

 

COOLBYTEZ_LOGO.png


Hidden Content

    Give reaction or reply to this topic to see the hidden content.

 

21abivr.jpg

Edited by .::Devil::.
  • Like 4

Μοιράσου αυτή την δημοσίευση


Link to post
Share on other sites

Δημιουργήστε ένα λογαριασμό ή συνδεθείτε προκειμένου να αφήσετε κάποιο σχόλιο

Πρέπει να είστε μέλος για να μπορέσετε να αφήσετε κάποιο σχόλιο

Δημιουργία λογαριασμού

Κάντε μια δωρεάν εγγραφή στην κοινότητά μας. Είναι εύκολο!

Εγγραφή νέου λογαριασμού

Σύνδεση

Εάν έχετε ήδη λογαριασμό; Συνδεθείτε εδώ.

Συνδεθείτε τώρα

×