Μετάβαση στο περιεχόμενο
вирус

ANNIHILATION (2018) HDRip XviD AC3-EVO | ENΣΩΜΑΤΩΜΕΝΟΙ ΥΠΟΤΙΤΛΟΙ

Recommended Posts

Nq1AfS0.jpg
 

ΣΚΗΝΟΘΕΣΙΑ : Alex Garland

ΣΕΝΑΡΙΟ : Alex Garland (written for the screen by), Jeff VanderMeer

ΗΘΟΠΟΙΟΙ : Natalie Portman, Jennifer Jason Leigh, Tessa Thompson

ΕΙΔΟΣ : Adventure, Drama, Fantasy

ΠΡΕΜΙΕΡΑ : 23 February 2018 (USA) 

 

ΜΕΤΑΦΡΑΣΗ : nemesi54

 

 

 

Μια ομάδα τεσσάρων γυναικών (μια βιολόγος, μια ανθρωπολόγος, μια ψυχολόγος και μια τοπογράφος) βρίσκονται σε μια άγνωστη περιοχή, γνωστή ως Περιοχή Χ. Το μέρος είναι εγκαταλελειμμένο και αποκομμένο από τον υπόλοιπο πολιτισμό, ενώ αυτή είναι η δωδέκατη εξερευνητική ομάδα που το επισκέπτεται. Αλλά όλες οι υπόλοιπες έχουν χτυπηθεί από εξαφανίσεις, αυτοκτονίες, επιθετικούς καρκίνους και ψυχικά τραύματα....

 

y8JJw6l.jpg

 

 

3sZwobQ.png


 

 

TEXNIKA XAΡΑΚΤΗΡΙΣΤΙΚΑ

General


Format                      : AVI

Format/Info                 : Audio Video Interleave

File size                   : 1.37 GiB

Duration                    : 1 h 55 min

Overall bit rate            : 1 704 kb/s

Writing application         : VirtualDubMod 1.5.10.2 (build 2542/release)

Writing library             : VirtualDub build 32661/release

 

Video

ID                          : 0

Format                      : MPEG-4 Visual

Format profile              : Advanced [email protected]

Format settings, BVOP       : 1

Format settings, QPel       : No

Format settings, GMC        : No warppoints

Format settings, Matrix     : Default (H.263)

Muxing mode                 : Packed bitstream

Codec ID                    : XVID

Codec ID/Hint               : XviD

Duration                    : 1 h 55 min

Bit rate                    : 1 310 kb/s

Width                       : 720 pixels

Height                      : 304 pixels

Display aspect ratio        : 2.35:1

Frame rate                  : 23.976 (24000/1001) FPS

Color space                 : YUV

Chroma subsampling          : 4:2:0

Bit depth                   : 8 bits

Scan type                   : Progressive

Compression mode            : Lossy

Bits/(Pixel*Frame)          : 0.250

Stream size                 : 1.06 GiB (77%)

Writing library             : XviD 64

 

Audio

ID                          : 1

Format                      : AC-3

Format/Info                 : Audio Coding 3

Format settings, Endianness : Big

Codec ID                    : 2000

Duration                    : 1 h 55 min

Bit rate mode               : Constant

Bit rate                    : 384 kb/s

Channel(s)                  : 6 channels

Channel positions           : Front: L C R, Side: L R, LFE

Sampling rate               : 48.0 kHz

Frame rate                  : 31.250 FPS (1536 spf)

Bit depth                   : 16 bits

Compression mode            : Lossy

Stream size                 : 317 MiB (23%)

Alignment                   : Split accross interleaves

Interleave, duration        : 42  ms (1.00 video frame)

Interleave, preload duratio : 500  ms

Service kind                : Complete Main


 

 

usDrZmS.png

http://www.imdb.com/title/tt2798920/

 

 

GngRSiQ.png

 

hsp9fZM.png

 

Hidden Content

    Give reaction or reply to this topic to see the hidden content.

 

 

eCmryx5.png

 

Hidden Content

    Give reaction or reply to this topic to see the hidden content.

 

 

 

PREMIUM LINK

 

hsp9fZM.png

 

Hidden Content

    Give reaction or reply to this topic to see the hidden content.


  • Like 4

Μοιράσου αυτή την δημοσίευση


Link to post
Share on other sites

Δημιουργήστε ένα λογαριασμό ή συνδεθείτε προκειμένου να αφήσετε κάποιο σχόλιο

Πρέπει να είστε μέλος για να μπορέσετε να αφήσετε κάποιο σχόλιο

Δημιουργία λογαριασμού

Κάντε μια δωρεάν εγγραφή στην κοινότητά μας. Είναι εύκολο!

Εγγραφή νέου λογαριασμού

Σύνδεση

Εάν έχετε ήδη λογαριασμό; Συνδεθείτε εδώ.

Συνδεθείτε τώρα

×