Μετάβαση στο περιεχόμενο
вирус

UNDERCOVER GRANDPA (2017) DVDRip XviD AC3-EVO | ENΣΩΜΑΤΩΜΕΝΟΙ ΥΠΟΤΙΤΛΟΙ

Recommended Posts

DJEorM1.jpg
 

ΣΚΗΝΟΘΕΣΙΑ : Erik Canuel

ΣΕΝΑΡΙΟ : Jeff Schechter

ΗΘΟΠΟΙΟΙ : Dylan Everett, James Caan, Greta Onieogou

ΕΙΔΟΣ :  Action, Comedy, Family

ΠΡΕΜΙΕΡΑ :  7 July 2017 (USA)

 

ΜΕΤΑΦΡΑΣΗ : Αikaterini Τsireka

 

 

 

Ο 17χρονος ντροπαλός Jake Bouchard έχει επιτέλους ραντεβού με το κορίτσι των ονείρων του. Η αξιαγάπητη Angie όμως πέφτει θύμα απαγωγής και η αλήθεια για τον παππού του Jake βγαίνει στην επιφάνεια. Αφού στρατολογεί τα μέλη της παλιάς του ομάδας, μαζί με τον νεαρό Jake θα ξεκινήσουν για μια τελευταία αποστολή με σκοπό να σώσουν την Angie....

 

GhJgiHD.jpg

 

 

3sZwobQ.png


 

 

TEXNIKA XAΡΑΚΤΗΡΙΣΤΙΚΑ

General


Format                      : AVI

Format/Info                 : Audio Video Interleave

File size                   : 1.38 GiB

Duration                    : 1 h 33 min

Overall bit rate            : 2 124 kb/s

Writing application         : VirtualDubMod 1.5.10.2 (build 2542/release)

Writing library             : VirtualDubMod build 2542/release

 

Video

ID                          : 0

Format                      : MPEG-4 Visual

Format profile              : Advanced [email protected]

Format settings, BVOP       : 1

Format settings, QPel       : No

Format settings, GMC        : No warppoints

Format settings, Matrix     : Default (H.263)

Muxing mode                 : Packed bitstream

Codec ID                    : XVID

Codec ID/Hint               : XviD

Duration                    : 1 h 33 min

Bit rate                    : 1 668 kb/s

Width                       : 720 pixels

Height                      : 304 pixels

Display aspect ratio        : 2.35:1

Frame rate                  : 23.976 (24000/1001) FPS

Color space                 : YUV

Chroma subsampling          : 4:2:0

Bit depth                   : 8 bits

Scan type                   : Progressive

Compression mode            : Lossy

Bits/(Pixel*Frame)          : 0.318

Stream size                 : 1.09 GiB (79%)

Writing library             : XviD 64

 

Audio

ID                          : 1

Format                      : AC-3

Format/Info                 : Audio Coding 3

Format settings, Endianness : Big

Codec ID                    : 2000

Duration                    : 1 h 33 min

Bit rate mode               : Constant

Bit rate                    : 448 kb/s

Channel(s)                  : 6 channels

Channel positions           : Front: L C R, Side: L R, LFE

Sampling rate               : 48.0 kHz

Frame rate                  : 31.250 FPS (1536 spf)

Bit depth                   : 16 bits

Compression mode            : Lossy

Stream size                 : 298 MiB (21%)

Alignment                   : Split accross interleaves

Interleave, duration        : 64  ms (1.53 video frames)

Interleave, preload duratio : 500  ms

Service kind                : Complete Main


 

 

usDrZmS.png

http://www.imdb.com/title/tt3891538/

 

 

GngRSiQ.png

 

hsp9fZM.png

 

Hidden Content

    Give reaction or reply to this topic to see the hidden content.

 

 

eCmryx5.png

 

Hidden Content

    Give reaction or reply to this topic to see the hidden content.

 

 

 

PREMIUM LINK

 

hsp9fZM.png

 

Hidden Content

    Give reaction or reply to this topic to see the hidden content.


  • Like 2

Μοιράσου αυτή την δημοσίευση


Link to post
Share on other sites

Δημιουργήστε ένα λογαριασμό ή συνδεθείτε προκειμένου να αφήσετε κάποιο σχόλιο

Πρέπει να είστε μέλος για να μπορέσετε να αφήσετε κάποιο σχόλιο

Δημιουργία λογαριασμού

Κάντε μια δωρεάν εγγραφή στην κοινότητά μας. Είναι εύκολο!

Εγγραφή νέου λογαριασμού

Σύνδεση

Εάν έχετε ήδη λογαριασμό; Συνδεθείτε εδώ.

Συνδεθείτε τώρα

×