Μετάβαση στο περιεχόμενο
вирус

LA MECANIQUE DE L'OMBRE / SCRIBE (2016) FRENCH BDRip XviD-EXTREME | ENΣΩΜΑΤΩΜΕΝΟΙ ΥΠΟΤΙΤΛΟΙ

Recommended Posts

AiegeBs.jpg
 

ΣΚΗΝΟΘΕΣΙΑ : Thomas Kruithof

ΣΕΝΑΡΙΟ : Thomas Kruithof

ΗΘΟΠΟΙΟΙ :  François Cluzet, Denis Podalydès, Sami Bouajila

ΕΙΔΟΣ : Action, Thriller 

ΠΡΕΜΙΕΡΑ : 9 March 2017 (Greece)

 

ΜΕΤΑΦΡΑΣΗ : Άγνωστος

 

 

 

Ο Ντιβάλ, ένας μεσήλικας που παλεύει να ανταπεξέρθει οικονομικά, αναζητά εργασία επί δύο χρόνια, μετά από μια βαριά εξάντληση που υπέστηκε. Θα προσληφθεί από έναν μυστηριώδη εργοδότη να καταγράφει τηλεφωνικές συνομιλίες, και σύντομα θα οδηγηθεί σε μια πολιτική συνωμοσία, αλλά και στον ιστό του υπόκοσμου των γαλλικών μυστικών υπηρεσιών....

 

hnoaog4.jpg

 

 

3sZwobQ.png


 

 

TEXNIKA XAΡΑΚΤΗΡΙΣΤΙΚΑ

General


Format                      : AVI

Format/Info                 : Audio Video Interleave

File size                   : 781 MiB

Duration                    : 1 h 30 min

Overall bit rate            : 1 203 kb/s

Writing application         : VirtualDubMod 1.5.10.2 (build 2542/release)

Writing library             : VirtualDubMod build 2542/release

 

Video

ID                          : 0

Format                      : MPEG-4 Visual

Format profile              : Advanced [email protected]

Format settings, BVOP       : 1

Format settings, QPel       : No

Format settings, GMC        : No warppoints

Format settings, Matrix     : Default (H.263)

Muxing mode                 : Packed bitstream

Codec ID                    : XVID

Codec ID/Hint               : XviD

Duration                    : 1 h 30 min

Bit rate                    : 1 065 kb/s

Width                       : 720 pixels

Height                      : 304 pixels

Display aspect ratio        : 2.35:1

Frame rate                  : 24.000 FPS

Color space                 : YUV

Chroma subsampling          : 4:2:0

Bit depth                   : 8 bits

Scan type                   : Progressive

Compression mode            : Lossy

Bits/(Pixel*Frame)          : 0.203

Stream size                 : 692 MiB (89%)

Writing library             : XviD 64

 

Audio

ID                          : 1

Format                      : MPEG Audio

Format version              : Version 1

Format profile              : Layer 3

Mode                        : Joint stereo

Mode extension              : MS Stereo

Codec ID                    : 55

Codec ID/Hint               : MP3

Duration                    : 1 h 30 min

Bit rate mode               : Constant

Bit rate                    : 128 kb/s

Channel(s)                  : 2 channels

Sampling rate               : 48.0 kHz

Compression mode            : Lossy

Stream size                 : 83.1 MiB (11%)

Alignment                   : Split accross interleaves

Interleave, duration        : 42  ms (1.00 video frame)

Interleave, preload duratio : 500  ms

Writing library             : LAME3.99r

Encoding settings           : -m j -V 4 -q 2 -lowpass 17 -b 128


 

 

usDrZmS.png

http://www.imdb.com/title/tt5231916/

 

 

GngRSiQ.png

 

hsp9fZM.png

 

Hidden Content

    Give reaction or reply to this topic to see the hidden content.

 

 

eCmryx5.png

 

Hidden Content

    Give reaction or reply to this topic to see the hidden content.


  • Like 2
  • Thanks 1

Μοιράσου αυτή την δημοσίευση


Link to post
Share on other sites

Δημιουργήστε ένα λογαριασμό ή συνδεθείτε προκειμένου να αφήσετε κάποιο σχόλιο

Πρέπει να είστε μέλος για να μπορέσετε να αφήσετε κάποιο σχόλιο

Δημιουργία λογαριασμού

Κάντε μια δωρεάν εγγραφή στην κοινότητά μας. Είναι εύκολο!

Εγγραφή νέου λογαριασμού

Σύνδεση

Εάν έχετε ήδη λογαριασμό; Συνδεθείτε εδώ.

Συνδεθείτε τώρα

×