Μετάβαση στο περιεχόμενο
вирус

ACTS OF VIOLENCE (2018) BRRip XviD AC3-EVO | ENΣΩΜΑΤΩΜΕΝΟΙ ΥΠΟΤΙΤΛΟΙ

Recommended Posts

I2JVyW3.jpg
 

ΣΚΗΝΟΘΕΣΙΑ : Brett Donowho

ΣΕΝΑΡΙΟ : Nicolas Aaron Mezzanatto 

ΗΘΟΠΟΙΟΙ : Bruce Willis, Cole Hauser, Shawn Ashmore

ΕΙΔΟΣ : Action, Drama 

ΠΡΕΜΙΕΡΑ : 12 January 2018 (USA)

 

ΜΕΤΑΦΡΑΣΗ : Darkflame

 

 

 

Όταν η μνηστή του απαγάγεται από διακινητές ανθρώπινης σάρκας, ο Ρόμαν και τα αδέλφια του που έχουν υπηρετήσει στον στρατό ξεκινούν την αναζήτηση της και την προσπάθεια να τη σώσουν πριν είναι πολύ αργά. Κατά την πορεία, ο Ρόμαν βρίσκει σύμμαχο και τον Έιβερι, ένας αστυνομικό που ερευνά το συγκεκριμένο θέμα και πολεμάει και τη γραφειοκρατία που έχει επιβλαβείς σκοπούς...

 

uV1FOTI.jpg

 

 

3sZwobQ.png


 

 

TEXNIKA XAΡΑΚΤΗΡΙΣΤΙΚΑ

General


Format                      : AVI

Format/Info                 : Audio Video Interleave

File size                   : 1.30 GiB

Duration                    : 1 h 26 min

Overall bit rate            : 2 139 kb/s

Writing application         : VirtualDubMod 1.5.10.2 (build 2542/release)

Writing library             : VirtualDubMod build 2542/release

 

Video

ID                          : 0

Format                      : MPEG-4 Visual

Format profile              : Advanced [email protected]

Format settings, BVOP       : 1

Format settings, QPel       : No

Format settings, GMC        : No warppoints

Format settings, Matrix     : Default (H.263)

Muxing mode                 : Packed bitstream

Codec ID                    : XVID

Codec ID/Hint               : XviD

Duration                    : 1 h 26 min

Bit rate                    : 1 748 kb/s

Width                       : 720 pixels

Height                      : 304 pixels

Display aspect ratio        : 2.35:1

Frame rate                  : 23.976 (24000/1001) FPS

Color space                 : YUV

Chroma subsampling          : 4:2:0

Bit depth                   : 8 bits

Scan type                   : Progressive

Compression mode            : Lossy

Bits/(Pixel*Frame)          : 0.333

Stream size                 : 1.06 GiB (82%)

Writing library             : XviD 64

 

Audio

ID                          : 1

Format                      : AC-3

Format/Info                 : Audio Coding 3

Format settings, Endianness : Big

Codec ID                    : 2000

Duration                    : 1 h 26 min

Bit rate mode               : Constant

Bit rate                    : 384 kb/s

Channel(s)                  : 6 channels

Channel positions           : Front: L C R, Side: L R, LFE

Sampling rate               : 48.0 kHz

Frame rate                  : 31.250 FPS (1536 spf)

Bit depth                   : 16 bits

Compression mode            : Lossy

Stream size                 : 239 MiB (18%)

Alignment                   : Split accross interleaves

Interleave, duration        : 64  ms (1.53 video frames)

Interleave, preload duratio : 500  ms

Service kind                : Complete Main


 

 

usDrZmS.png

http://www.imdb.com/title/tt6684714/

 

 

GngRSiQ.png

 

hsp9fZM.png

 

Hidden Content

    Give reaction or reply to this topic to see the hidden content.

 

 

eCmryx5.png

 

Hidden Content

    Give reaction or reply to this topic to see the hidden content.

 

 

 

PREMIUM LINK

 

hsp9fZM.png

 

Hidden Content

    Give reaction or reply to this topic to see the hidden content.


  • Like 5

Μοιράσου αυτή την δημοσίευση


Link to post
Share on other sites

Δημιουργήστε ένα λογαριασμό ή συνδεθείτε προκειμένου να αφήσετε κάποιο σχόλιο

Πρέπει να είστε μέλος για να μπορέσετε να αφήσετε κάποιο σχόλιο

Δημιουργία λογαριασμού

Κάντε μια δωρεάν εγγραφή στην κοινότητά μας. Είναι εύκολο!

Εγγραφή νέου λογαριασμού

Σύνδεση

Εάν έχετε ήδη λογαριασμό; Συνδεθείτε εδώ.

Συνδεθείτε τώρα

×