Μετάβαση στο περιεχόμενο
вирус

THE AFRICAN DOCTOR / BIENVENUE A MARLY-GOMONT (2016) FRENCH BDRip XViD-eVe| ENΣΩΜ/ΥΠΟΤ

Recommended Posts

Axy5CBn.jpg
 

ΣΚΗΝΟΘΕΣΙΑ : Julien Rambaldi

ΣΕΝΑΡΙΟ : Benoît Graffin (adaptation), Benoît Graffin (dialogue)

ΗΘΟΠΟΙΟΙ : Marc Zinga, Aïssa Maïga, Bayron Lebli

ΕΙΔΟΣ : Biography, Comedy, Drama

ΠΡΕΜΙΕΡΑ : 8 June 2016 (France)

 

ΜΕΤΑΦΡΑΣΗ : Λ.Κ.

 

 

 

Ο Seyolo Zantoko είναι ένας γιατρός από το Κονγκό που θέλει να ξεφύγει από τη δικτατορία και έχει προσληφθεί από τον δήμαρχο ενός μικρού χωριού στο βόρειο τμήμα της Γαλλίας. Οι ντόπιοι φοβούνται τον Seyolo και την οικογένειά του, καθώς δεν έχουν δει ποτέ τους Αφρικανούς, και ο Seyolo και η οικογένειά του αγωνίζονται να προσαρμοστούν σε αυτή τη νέα ζωή. Αλλά ο Seyolo είναι αποφασισμένος να επιτύχει και να κερδίσει την εμπιστοσύνη των χωρικών....

 

hW32sbY.jpg

 

 

3sZwobQ.png


 

 

TEXNIKA XAΡΑΚΤΗΡΙΣΤΙΚΑ

General


Format                      : AVI

Format/Info                 : Audio Video Interleave

File size                   : 703 MiB

Duration                    : 1 h 33 min

Overall bit rate            : 1 052 kb/s

Writing application         : VirtualDubMod 1.5.10.2 (build 2542/release)

Writing library             : VirtualDubMod build 2542/release

 

Video

ID                          : 0

Format                      : MPEG-4 Visual

Format profile              : Advanced [email protected]

Format settings, BVOP       : 1

Format settings, QPel       : No

Format settings, GMC        : No warppoints

Format settings, Matrix     : Default (H.263)

Muxing mode                 : Packed bitstream

Codec ID                    : XVID

Codec ID/Hint               : XviD

Duration                    : 1 h 33 min

Bit rate                    : 915 kb/s

Width                       : 720 pixels

Height                      : 296 pixels

Display aspect ratio        : 2.40:1

Frame rate                  : 24.000 FPS

Color space                 : YUV

Chroma subsampling          : 4:2:0

Bit depth                   : 8 bits

Scan type                   : Progressive

Compression mode            : Lossy

Bits/(Pixel*Frame)          : 0.179

Stream size                 : 611 MiB (87%)

Writing library             : XviD 64

 

Audio

ID                          : 1

Format                      : MPEG Audio

Format version              : Version 1

Format profile              : Layer 3

Mode                        : Joint stereo

Codec ID                    : 55

Codec ID/Hint               : MP3

Duration                    : 1 h 33 min

Bit rate mode               : Constant

Bit rate                    : 128 kb/s

Channel(s)                  : 2 channels

Sampling rate               : 48.0 kHz

Compression mode            : Lossy

Stream size                 : 85.5 MiB (12%)

Alignment                   : Aligned on interleaves

Interleave, duration        : 42  ms (1.00 video frame)

Interleave, preload duratio : 504  ms

Writing library             : LAME3.99r

Encoding settings           : -m j -V 4 -q 2 -lowpass 17 -b 128


 

 

usDrZmS.png

http://www.imdb.com/title/tt5555502/

 

 

GngRSiQ.png

 

hsp9fZM.png

 

Hidden Content

    Give reaction or reply to this topic to see the hidden content.

 

 

eCmryx5.png

 

Hidden Content

    Give reaction or reply to this topic to see the hidden content.


  • Like 1
  • Thanks 1

Μοιράσου αυτή την δημοσίευση


Link to post
Share on other sites

Δημιουργήστε ένα λογαριασμό ή συνδεθείτε προκειμένου να αφήσετε κάποιο σχόλιο

Πρέπει να είστε μέλος για να μπορέσετε να αφήσετε κάποιο σχόλιο

Δημιουργία λογαριασμού

Κάντε μια δωρεάν εγγραφή στην κοινότητά μας. Είναι εύκολο!

Εγγραφή νέου λογαριασμού

Σύνδεση

Εάν έχετε ήδη λογαριασμό; Συνδεθείτε εδώ.

Συνδεθείτε τώρα

×