Μετάβαση στο περιεχόμενο
вирус

THE POST (2017) BRRip XviD AC3-XVID | ENΣΩΜΑΤΩΜΕΝΟΙ ΥΠΟΤΙΤΛΟΙ

Recommended Posts

lzPGXRc.jpg
 

ΣΚΗΝΟΘΕΣΙΑ : Steven Spielberg

ΣΕΝΑΡΙΟ : Liz Hannah, Josh Singer

ΗΘΟΠΟΙΟΙ :  Meryl Streep, Tom Hanks, Sarah Paulson

ΕΙΔΟΣ :  Biography, Drama, History 

ΠΡΕΜΙΕΡΑ : 11 January 2018 (Greece)

 

ΜΕΤΑΦΡΑΣΗ : Calamity jane

 

 

 

O Στίβεν Σπίλμπεργκ σκηνοθετεί την Μέριλ Στριπ και τον Τομ Χανκς στην ταινία «The Post: Απαγορευμένα Μυστικά». Πρόκειται για μία συγκλονιστική δραματική ταινία που αφηγείται την ιδιαίτερη συνεργασία ανάμεσα στην πρώτη γυναίκα εκδότη εφημερίδας, Κέι Γκράχαμ (Μέριλ Στριπ), και στον άτεγκτο συντάκτη Μπεν Μπράντλι (Τομ Χανκς), καθώς προσπαθούν να προλάβουν να δημοσιεύσουν ένα τεράστιο σκάνδαλο από κυβερνητικά μυστικά τριών δεκαετιών και τεσσάρων Αμερικανών Προέδρων. Οι δυο τους πρέπει να βρουν τρόπο να γεφυρώσουν τις διαφορές τους, καθώς θέτουν τόσο τις καριέρες τους όσο και την ελευθερία τους σε κίνδυνο, προκειμένου να λάμψει η αλήθεια.

 

 

Η ταινία αποτελεί την πρώτη κινηματογραφική σύμπραξη μεταξύ του κορυφαίου κινηματογραφιστή και των υπερταλαντούχων ηθοποιών, ενώ ο Σπίλμπεργκ, εκτός από τη σκηνοθεσία, έχει αναλάβει και την παραγωγή μαζί με τις Έιμι Πασκάλ και Κρίστι Μακόσκο Κρίγκερ. Το σενάριο έγραψαν η Λιζ Χάνα και ο Τζος Σίνγκερ.

 

sqK4fSK.jpg

 

 

3sZwobQ.png


 

 

TEXNIKA XAΡΑΚΤΗΡΙΣΤΙΚΑ

General


Format                      : AVI

Format/Info                 : Audio Video Interleave

File size                   : 1.66 GiB

Duration                    : 1 h 55 min

Overall bit rate            : 2 051 kb/s

Writing application         : VirtualDubMod 1.5.10.2 (build 2542/release)

Writing library             : VirtualDubMod build 2542/release

 

Video

ID                          : 0

Format                      : MPEG-4 Visual

Format profile              : Advanced [email protected]

Format settings, BVOP       : 1

Format settings, QPel       : No

Format settings, GMC        : No warppoints

Format settings, Matrix     : Default (H.263)

Muxing mode                 : Packed bitstream

Codec ID                    : XVID

Codec ID/Hint               : XviD

Duration                    : 1 h 55 min

Bit rate                    : 1 596 kb/s

Width                       : 720 pixels

Height                      : 388 pixels

Display aspect ratio        : 1.85:1

Frame rate                  : 23.976 (24000/1001) FPS

Color space                 : YUV

Chroma subsampling          : 4:2:0

Bit depth                   : 8 bits

Scan type                   : Progressive

Compression mode            : Lossy

Bits/(Pixel*Frame)          : 0.238

Stream size                 : 1.29 GiB (78%)

Writing library             : XviD 64

 

Audio

ID                          : 1

Format                      : AC-3

Format/Info                 : Audio Coding 3

Format settings, Endianness : Big

Codec ID                    : 2000

Duration                    : 1 h 55 min

Bit rate mode               : Constant

Bit rate                    : 448 kb/s

Channel(s)                  : 6 channels

Channel positions           : Front: L C R, Side: L R, LFE

Sampling rate               : 48.0 kHz

Frame rate                  : 31.250 FPS (1536 spf)

Bit depth                   : 16 bits

Compression mode            : Lossy

Stream size                 : 372 MiB (22%)

Alignment                   : Split accross interleaves

Interleave, duration        : 64  ms (1.53 video frames)

Interleave, preload duratio : 500  ms

Service kind                : Complete Main


 

 

usDrZmS.png

http://www.imdb.com/title/tt6294822/

 

 

GngRSiQ.png

 

hsp9fZM.png

 

Hidden Content

    Give reaction or reply to this topic to see the hidden content.

 

 

eCmryx5.png

 

Hidden Content

    Give reaction or reply to this topic to see the hidden content.

 

 

 

WhnxB5b.png

 

Hidden Content

    Give reaction or reply to this topic to see the hidden content.


  • Like 2

Μοιράσου αυτή την δημοσίευση


Link to post
Share on other sites

Δημιουργήστε ένα λογαριασμό ή συνδεθείτε προκειμένου να αφήσετε κάποιο σχόλιο

Πρέπει να είστε μέλος για να μπορέσετε να αφήσετε κάποιο σχόλιο

Δημιουργία λογαριασμού

Κάντε μια δωρεάν εγγραφή στην κοινότητά μας. Είναι εύκολο!

Εγγραφή νέου λογαριασμού

Σύνδεση

Εάν έχετε ήδη λογαριασμό; Συνδεθείτε εδώ.

Συνδεθείτε τώρα

×