Μετάβαση στο περιεχόμενο
POPITSAKOSTIS

ΤΟ ΚΟΡΟΙΔΑΚΙ ΤΗΣ ΔΕΣΠΟΙΝΙΔΟΣ (1960-2018) COLORiZED TVRip

Recommended Posts

WlydjnCh.png

ΤΟ ΚΟΡΟΙΔΑΚΙ ΤΗΣ ΔΕΣΠΟΙΝΙΔΟΣ (1960-2018) COLORiZED TVRip

Αυθεντικός Τίτλος: Το Κοροϊδάκι της Δεσποινίδος
Είδος Ταινίας: Κωμωδία, Ρομαντικό
Πρεμιέρα στην Ελλάδα: Δευτέρα 14 Μαρτίου 1960
Σκηνοθέτης: Γιάννης Δαλιανίδης
Σενάριο: Γιάννης Δαλιανίδης
Πρωταγωνιστούν: Τζένη Καρέζη, Ντίνος Ηλιόπουλος, Διονύσης Παπαγιαννόπουλος, Σταύρος Ξενίδης, Ρίκα Διαλυνά, Τζόλυ Γαρμπή, Νίκος Τσιφόρος
Ήχος: Eλληνικά
Χρώμα: Έγχρωμο
Διάρκεια: 67 Λεπτά

Υπόθεση: Η Τζούλια ένα πλουσιοκόριτσο που της αρέσει η καλοπέραση, είναι κόρη του Τέλη, γενικού διευθυντή της εταιρίας χάλυβος. Ο Γρηγόρης, ιδιαίτερος του Τέλη στην εταιρία, ένας φιλήσυχος υπάλληλος που είναι ερωτευμένος με την Τζούλια, μετά από μια σειρά παρεξηγήσεων θα χάσει τη δουλειά του και θα απολυθεί...

- Παραλειπόμενα:

Κινηματογραφική μεταφορά του ομώνυμου θεατρικού έργου των Νίκου Τσιφόρου και Πολύβιου Βασιλειάδη.

4MBorzsh.jpg

[video]http://www.youtube.com/watch?v=ZcnSZLx75tA[/video]

http://www.imdb.com/title/tt0126986/
http://cine.gr/film.asp?id=2300

ΤΕΧΝΙΚΑ ΧΑΡΑΚΤΗΡΙΣΤΙΚΑ


General
Complete name               : ΤΟ ΚΟΡΟΙΔΑΚΙ ΤΗΣ ΔΕΣΠΟΙΝΙΔΟΣ (1960).mp4
Format                      : MPEG-4
Format profile              : Base Media
Codec ID                    : isom (isom/iso2/mp41)
File size                   : 1.16 GiB
Duration                    : 1 h 17 min
Overall bit rate mode       : Constant
Overall bit rate            : 2 133 kb/s
Movie name                  : To.Koroidaki.tis.Despoinidos.1960.COLORiZED.1080p.HDTV.DD2.0.x264-D3jaVU
Writing application         : Lavf56.1.100

Video
ID                          : 2
Format                      : MPEG-4 Visual
Format profile              : [email protected]
Format settings, BVOP       : No
Format settings, QPel       : No
Format settings, GMC        : No warppoints
Format settings, Matrix     : Default (H.263)
Codec ID                    : mp4v-20
Duration                    : 1 h 17 min
Bit rate mode               : Constant
Bit rate                    : 2 000 kb/s
Width                       : 720 pixels
Height                      : 576 pixels
Display aspect ratio        : 16:9
Original display aspect rat : 16:9
Frame rate mode             : Constant
Frame rate                  : 25.000 FPS
Standard                    : PAL
Color space                 : YUV
Chroma subsampling          : 4:2:0
Bit depth                   : 8 bits
Scan type                   : Progressive
Compression mode            : Lossy
Bits/(Pixel*Frame)          : 0.193
Stream size                 : 1.08 GiB (94%)
Writing library             : Lavc56.0.101

Audio
ID                          : 1
Format                      : AAC
Format/Info                 : Advanced Audio Codec
Format profile              : LC
Codec ID                    : mp4a-40-2
Duration                    : 1 h 17 min
Duration_LastFrame          : -2 ms
Bit rate mode               : Constant
Bit rate                    : 128 kb/s
Channel(s)                  : 2 channels
Channel positions           : Front: L R
Sampling rate               : 44.1 kHz
Frame rate                  : 43.066 FPS (1024 SPF)
Compression mode            : Lossy
Stream size                 : 71.0 MiB (6%)
Default                     : Yes
Alternate group             : 1


qO4Dexcl.png

Hidden Content

    Give reaction or reply to this topic to see the hidden content.

VBbdedlh.png

Hidden Content

    Give reaction or reply to this topic to see the hidden content.

  • Like 3
  • Thanks 5

Μοιράσου αυτή την δημοσίευση


Link to post
Share on other sites

Δημιουργήστε ένα λογαριασμό ή συνδεθείτε προκειμένου να αφήσετε κάποιο σχόλιο

Πρέπει να είστε μέλος για να μπορέσετε να αφήσετε κάποιο σχόλιο

Δημιουργία λογαριασμού

Κάντε μια δωρεάν εγγραφή στην κοινότητά μας. Είναι εύκολο!

Εγγραφή νέου λογαριασμού

Σύνδεση

Εάν έχετε ήδη λογαριασμό; Συνδεθείτε εδώ.

Συνδεθείτε τώρα

×