Μετάβαση στο περιεχόμενο

Recommended Posts

 

GAME OF LOVE (2018-) ANT1 TVRip AVI HD

h4mPlZol.jpg


IaXZX9E.png

Μπορεί ο έρωτας να μην έχει κανόνες και όρια, αλλά το game of Love, το παιχνίδι των προκλήσεων και των ανατροπών έχει ορισμένους βασικούς κανονισμούς που πρέπει να ακολουθούν τα ζευγάρια
και οι singles για να κερδίσουν το έπαθλο των 30.000 ευρώ!

Ας δούμε πώς παίζεται το παιχνίδι του έρωτα!
Κάθε παίκτης ξεκινάει με 500 € στο ατομικό του ταμείο το οποίο αυξάνεται αν μαντέψει σωστά στις ψηφοφορίες ή αν ολοκληρώσει επιτυχημένα ΑΠΟΣΤΟΛΕΣ ΑΠΟΠΛΑΝΗΣΗΣ που μπορεί να του ανατεθούν.

ΑΠΟΧΩΡΗΣΕΙΣ
Η αποχώρηση γίνεται στην ολοκλήρωση των ΤΕΛΕΤΩΝ ΑΠΟΚΑΛΥΨΗΣ.
Η διαδικασία είναι ως εξής:
1. Οι παίκτες καλούνται να ψηφίσουν ποιοι θεωρούν ότι είναι ζευγάρι. Προσοχή δεν τους ζητάμε ένα αγόρι κ ένα κορίτσι που είναι ζευγάρι αλλά δύο άτομα που είναι ζευγάρι.
2 Ακολουθεί η ψηφοφορία, μυστική.
3. Κ στη συνέχεια η ΤΕΛΕΤΗ ΑΠΟΚΑΛΥΨΗΣ στην οποία ο Χάρης ανακοινώνει τα αποτελέσματα και ζητάει από τα 2 άτομα που έχουν ψηφιστεί ως ζευγάρι κατά πλειοψηφία να σηκωθούν
και να σταθούν δίπλα του.
4. Τους ρωτάει αν έχουν έρθει στο παιχνίδι ως ζευγάρι.
5. Αν απαντήσουν θετικά τότε πρέπει να ανακοινώσουν στον Χάρη ποιος από τους 2 θα φύγει.
Το ένα μέλος του ζευγαριού φεύγει κ το άλλο συνεχίζει για να διεκδικήσει μια θέση στον τελικό. Φυσικά η ταυτότητα του έχει αποκαλυφθεί.
Τα ατομικά τους ταμεία μηδενίζονται και το ποσό μοιράζεται στους παίκτες που έχουν μαντέψει σωστά.
6. Αν απαντήσουν αρνητικά τότε επιστρέφουν στις θέσεις τους κ δεν έχουμε αποχώρηση.

Η παραγωγή μπορεί, όμως, να ζητήσει από τους παίκτες να μαντέψουν ποιοι είναι singles. Σε αυτή την περίπτωση, ακολουθείται η διαδικασία που έχει περιγραφεί παραπάνω για τα ζευγάρια
μέχρι το σημείο που ζητάει να σηκωθούν τα δύο άτομα που έχουν ψηφιστεί κατά πλειοψηφία.
Μετά τα βήματα είναι ως εξής:
1. Αν είναι και οι δύο singles τότε το επιβεβαιώνουν στον Χάρη κ ακολουθεί νέα ανοιχτή ψηφοφορία στην οποία οι υπόλοιποι παίκτες ψηφίζουν ποιος από τους δύο θα φύγει από το παιχνίδι.
Ο άλλος συνεχίζει για να διεκδικήσει μια θέση στον τελικό.
Τα ατομικά  ταμεία κ των 2 μηδενίζονται και το ποσό μοιράζεται στους παίκτες που έχουν μαντέψει σωστά.
2.Αν ένας από τους δύο δεν είναι single ή κ οι δύο, τότε ο Χάρης ανακοινώνει ότι δεν είναι singles κ επιστρέφουν στη θέση τους, χωρίς να δοθούν  φυσικά στοιχεία για την ταυτότητα τους.
Και σε αυτήν την περίπτωση δεν έχουμε αποχώρηση.

 

6KTXyhc.png

ZOH2O8kl.jpg


sNfCVWD.png

 

   General
      Complete name :GAMES OF LOVE
      Format : AVI
      Format/Info : Audio Video Interleave
      File size : 1.63 GiB
      Duration : 1 h 44 min
      Overall bit rate : 2 231 kb/s
   Video #0
      ID : 0
      Format : AVC
      Format/Info : Advanced Video Codec
      Format profile : [email protected]
      Format settings : 1 Ref Frames
      Format settings, CABAC : No
      Format settings, ReFrames : 1 frame
      Codec ID : H264
      Duration : 1 h 44 min
      Bit rate : 2 085 kb/s
      Width : 1 920 pixels
      Height : 1 080 pixels
      Display aspect ratio : 16:9
      Frame rate : 50.000 FPS
      Color space : YUV
      Chroma subsampling : 4:2:0
      Bit depth : 8 bits
      Scan type : Progressive
      Bits/(Pixel*Frame) : 0.020
      Stream size : 1.52 GiB (93%)
      Writing library : x264 core 146 r2555 0c21480
      
   Audio #1
      ID : 1
      Format : MPEG Audio
      Format version : Version 1
      Format profile : Layer 3
      Codec ID : 55
      Codec ID/Hint : MP3
      Duration : 1 h 44 min
      Bit rate mode : Constant
      Bit rate : 128 kb/s
      Channel(s) : 2 channels
      Sampling rate : 48.0 kHz
      Compression mode : Lossy
      Stream size : 95.6 MiB (6%)
      Alignment : Aligned on interleaves
      Interleave, duration : 24  ms (1.20 video frame)
      Writing library : LAME3.99.5UUUUUUUU–°   
 

2V9nbDH.png

 

eKydSyt.jpg


zPAQxlN.png

 

A3VtJrt.png

Hidden Content

    Give reaction or reply to this topic to see the hidden content.

 

 

Edited by loufjohn
  • Like 1
  • Thanks 2
  • Haha 1

Μοιράσου αυτή την δημοσίευση


Link to post
Share on other sites

Δημιουργήστε ένα λογαριασμό ή συνδεθείτε προκειμένου να αφήσετε κάποιο σχόλιο

Πρέπει να είστε μέλος για να μπορέσετε να αφήσετε κάποιο σχόλιο

Δημιουργία λογαριασμού

Κάντε μια δωρεάν εγγραφή στην κοινότητά μας. Είναι εύκολο!

Εγγραφή νέου λογαριασμού

Σύνδεση

Εάν έχετε ήδη λογαριασμό; Συνδεθείτε εδώ.

Συνδεθείτε τώρα

×