Μετάβαση στο περιεχόμενο
вирус

THE 12TH MAN / DEN 12. MANN (2017) HDRip XviD AC3-EVO | ENΣΩΜΑΤΩΜΕΝΟΙ ΥΠΟΤΙΤΛΟΙ

Recommended Posts

KshWOpb.jpg

ΣΚΗΝΟΘΕΣΙΑ : Harald Zwart
ΣΕΝΑΡΙΟ : Petter Skavlan (as Alex Boe)
ΗΘΟΠΟΙΟΙ : Thomas Gullestad, Jonathan Rhys Meyers, Marie Blokhus
ΕΙΔΟΣ : Drama, History, Thriller 
ΠΡΕΜΙΕΡΑ : 25 December 2017 (Norway)

ΜΕΤΑΦΡΑΣΗ : MedievalGuy

Η ταινία αφηγείται την ιστορία 12 ανδρών όταν πιάστηκαν αιχμάλωτοι των Νάζι, οπού μόνο ένας μπόρεσε να δραπετεύσει. ...

5RRNmfo.jpg


3sZwobQ.png
[video]http://www.youtube.com/watch?v=oAfQh7v4Kbs[/video]


TEXNIKA XAΡΑΚΤΗΡΙΣΤΙΚΑ

General
Format                      : AVI
Format/Info                 : Audio Video Interleave
File size                   : 1.38 GiB
Duration                    : 2 h 9 min
Overall bit rate            : 1 528 kb/s
Writing application         : VirtualDubMod 1.5.10.2 (build 2542/release)
Writing library             : VirtualDubMod build 2542/release

Video
ID                          : 0
Format                      : MPEG-4 Visual
Format profile              : Advanced [email protected]
Format settings             : BVOP1
Format settings, BVOP       : 1
Format settings, QPel       : No
Format settings, GMC        : No warppoints
Format settings, Matrix     : Default (H.263)
Muxing mode                 : Packed bitstream
Codec ID                    : XVID
Codec ID/Hint               : XviD
Duration                    : 2 h 9 min
Bit rate                    : 1 136 kb/s
Width                       : 720 pixels
Height                      : 304 pixels
Display aspect ratio        : 2.35:1
Frame rate                  : 25.000 FPS
Color space                 : YUV
Chroma subsampling          : 4:2:0
Bit depth                   : 8 bits
Scan type                   : Progressive
Compression mode            : Lossy
Bits/(Pixel*Frame)          : 0.208
Stream size                 : 1.03 GiB (74%)
Writing library             : XviD 64

Audio
ID                          : 1
Format                      : AC-3
Format/Info                 : Audio Coding 3
Codec ID                    : 2000
Duration                    : 2 h 9 min
Bit rate mode               : Constant
Bit rate                    : 384 kb/s
Channel(s)                  : 6 channels
Channel positions           : Front: L C R, Side: L R, LFE
Sampling rate               : 48.0 kHz
Frame rate                  : 31.250 FPS (1536 SPF)
Bit depth                   : 16 bits
Compression mode            : Lossy
Stream size                 : 356 MiB (25%)
Alignment                   : Split accross interleaves
Interleave, duration        : 64  ms (1.60 video frames)
Interleave, preload duratio : 500  ms
Service kind                : Complete Main


usDrZmS.png

http://www.imdb.com/title/tt3300980/


YsK48dD.png

hsp9fZM.png

Hidden Content

    Give reaction or reply to this topic to see the hidden content.


eCmryx5.png

Hidden Content

    Give reaction or reply to this topic to see the hidden content.

ELxhDjK.png

Hidden Content

    Give reaction or reply to this topic to see the hidden content.

  • Like 4
  • Thanks 2

Μοιράσου αυτή την δημοσίευση


Link to post
Share on other sites
On 5/16/2018 at 10:33 PM, вирус said:

 

KshWOpb.jpg

ΣΚΗΝΟΘΕΣΙΑ : Harald Zwart
ΣΕΝΑΡΙΟ : Petter Skavlan (as Alex Boe)
ΗΘΟΠΟΙΟΙ : Thomas Gullestad, Jonathan Rhys Meyers, Marie Blokhus
ΕΙΔΟΣ : Drama, History, Thriller 
ΠΡΕΜΙΕΡΑ : 25 December 2017 (Norway)

ΜΕΤΑΦΡΑΣΗ : MedievalGuy

Η ταινία αφηγείται την ιστορία 12 ανδρών όταν πιάστηκαν αιχμάλωτοι των Νάζι, οπού μόνο ένας μπόρεσε να δραπετεύσει. ...

5RRNmfo.jpg


3sZwobQ.png
[video]http://www.youtube.com/watch?v=oAfQh7v4Kbs[/video]


TEXNIKA XAΡΑΚΤΗΡΙΣΤΙΚΑ

 

General
Format                      : AVI
Format/Info                 : Audio Video Interleave
File size                   : 1.38 GiB
Duration                    : 2 h 9 min
Overall bit rate            : 1 528 kb/s
Writing application         : VirtualDubMod 1.5.10.2 (build 2542/release)
Writing library             : VirtualDubMod build 2542/release

Video
ID                          : 0
Format                      : MPEG-4 Visual
Format profile              : Advanced [email protected]
Format settings             : BVOP1
Format settings, BVOP       : 1
Format settings, QPel       : No
Format settings, GMC        : No warppoints
Format settings, Matrix     : Default (H.263)
Muxing mode                 : Packed bitstream
Codec ID                    : XVID
Codec ID/Hint               : XviD
Duration                    : 2 h 9 min
Bit rate                    : 1 136 kb/s
Width                       : 720 pixels
Height                      : 304 pixels
Display aspect ratio        : 2.35:1
Frame rate                  : 25.000 FPS
Color space                 : YUV
Chroma subsampling          : 4:2:0
Bit depth                   : 8 bits
Scan type                   : Progressive
Compression mode            : Lossy
Bits/(Pixel*Frame)          : 0.208
Stream size                 : 1.03 GiB (74%)
Writing library             : XviD 64

Audio
ID                          : 1
Format                      : AC-3
Format/Info                 : Audio Coding 3
Codec ID                    : 2000
Duration                    : 2 h 9 min
Bit rate mode               : Constant
Bit rate                    : 384 kb/s
Channel(s)                  : 6 channels
Channel positions           : Front: L C R, Side: L R, LFE
Sampling rate               : 48.0 kHz
Frame rate                  : 31.250 FPS (1536 SPF)
Bit depth                   : 16 bits
Compression mode            : Lossy
Stream size                 : 356 MiB (25%)
Alignment                   : Split accross interleaves
Interleave, duration        : 64  ms (1.60 video frames)
Interleave, preload duratio : 500  ms
Service kind                : Complete Main

 


usDrZmS.png

http://www.imdb.com/title/tt3300980/

 


YsK48dD.png

hsp9fZM.png

 

Hidden Content

  • Give reaction or reply to this topic to see the hidden content.

 


eCmryx5.png

 

Hidden Content

  • Give reaction or reply to this topic to see the hidden content.

 

ELxhDjK.png

 

Hidden Content

  • Give reaction or reply to this topic to see the hidden content.

 

 

 

Μοιράσου αυτή την δημοσίευση


Link to post
Share on other sites

Δημιουργήστε ένα λογαριασμό ή συνδεθείτε προκειμένου να αφήσετε κάποιο σχόλιο

Πρέπει να είστε μέλος για να μπορέσετε να αφήσετε κάποιο σχόλιο

Δημιουργία λογαριασμού

Κάντε μια δωρεάν εγγραφή στην κοινότητά μας. Είναι εύκολο!

Εγγραφή νέου λογαριασμού

Σύνδεση

Εάν έχετε ήδη λογαριασμό; Συνδεθείτε εδώ.

Συνδεθείτε τώρα

×