Μετάβαση στο περιεχόμενο
POPITSAKOSTIS

THE BREADWINNER (2017) 720p BluRay DTS x264 - MTeam | ΞΕΧΩΡΙΣΤΟΙ ΥΠΟΤΙΤΛΟΙ

Recommended Posts

XW0PBqnh.jpg

THE BREADWINNER (2017) 720p BluRay DTS x264 - MTeam | ΞΕΧΩΡΙΣΤΟΙ ΥΠΟΤΙΤΛΟΙ

ΠΛΗΡΟΦΟΡΙΕΣ

Είδος Ταινίας: Animation, Drama, Family
Σκηνοθέτης: Nora Twomey
Σενάριο: Anita Doron (screenplay), Deborah Ellis (screen story)
Ηθοποιοί: Saara Chaudry, Soma Chhaya, Noorin Gulamgaus
Υπότιτλοι: Ελληνικοί, Ενσωματωμένοι
Διάρκεια: 94' Λεπτά
Μέγεθος: 1.33 GB
Μετάφραση: kontrosol

ΥΠΟΘΕΣΗ

2001. Ο πατέρας της 11χρονης Παρβανά της αφηγούνταν ιστορίες και παραμύθια, καθώς τον βοηθούσε στην αγορά στην ελεγχόμενη από τους Ταλιμπάν Καμπούλ. Όταν ο πατέρας συλλαμβάνεται, ο Παρβανά βρίσκει το κουράγιο να τον αναζητήσει, κι ενώ όλοι οι άλλοι έχουν χάσει κάθε ελπίδα. Έτσι, θα μεταμφιεστεί σε αγόρι, και θα γίνει η ίδια παραμυθάς, θυμούμενη έναν αδελφό που κάποτε είχε. Κάθε ημέρα είναι και μια σκληρή πρόκληση, προσπαθώντας να παρέχει φαγητό και νερό στη μητέρα, την αδελφή και τον μικρούλη της αδελφό. Τότε θα συναντήσει μια άλλη κοπέλα με το όνομα Σαζιά και μαζί θα πάρουν δύναμη να υπομείνουν τα δεινά του πολέμου που φτάνει στο κατώφλι τους.

zwgYySWh.jpg

[video]http://www.youtube.com/watch?v=9G6yZZguI04[/video]

http://www.imdb.com/title/tt3901826/

ΤΕΧΝΙΚΑ ΧΑΡΑΚΤΗΡΙΣΤΙΚΑ


General
Complete name               : The.Breadwinner.2017.BluRay.720p.DTS.x264-MTeam.mkv
Format                      : Matroska
Format version              : Version 4 / Version 2
File size                   : 4.94 GiB
Duration                    : 1 h 33 min
Overall bit rate            : 7 572 kb/s
Encoded date                : UTC 2018-02-28 08:28:54
Writing application         : mkvmerge v9.2.0 ('Photograph') 64bit
Writing library             : libebml v1.3.3 + libmatroska v1.4.4

Video
ID                          : 1
Format                      : AVC
Format/Info                 : Advanced Video Codec
Format profile              : [email protected]
Format settings             : CABAC / 12 Ref Frames
Format settings, CABAC      : Yes
Format settings, RefFrames  : 12 frames
Codec ID                    : V_MPEG4/ISO/AVC
Duration                    : 1 h 33 min
Bit rate                    : 6 060 kb/s
Width                       : 1 280 pixels
Height                      : 534 pixels
Display aspect ratio        : 2.40:1
Frame rate mode             : Constant
Frame rate                  : 23.976 (24000/1001) FPS
Color space                 : YUV
Chroma subsampling          : 4:2:0
Bit depth                   : 8 bits
Scan type                   : Progressive
Bits/(Pixel*Frame)          : 0.370
Stream size                 : 3.95 GiB (80%)
Default                     : Yes
Forced                      : No

Audio
ID                          : 2
Format                      : DTS
Format/Info                 : Digital Theater Systems
Mode                        : 16
Format settings, Endianness : Big
Codec ID                    : A_DTS
Duration                    : 1 h 33 min
Bit rate mode               : Constant
Bit rate                    : 1 509 kb/s
Channel(s)                  : 6 channels
Channel positions           : Front: L C R, Side: L R, LFE
Sampling rate               : 48.0 kHz
Frame rate                  : 93.750 FPS (512 SPF)
Bit depth                   : 24 bits
Compression mode            : Lossy
Stream size                 : 1 008 MiB (20%)
Default                     : Yes
Forced                      : No


qO4Dexcl.png

Hidden Content

    Give reaction or reply to this topic to see the hidden content.

VBbdedlh.png

Hidden Content

    Give reaction or reply to this topic to see the hidden content.

Μοιράσου αυτή την δημοσίευση


Link to post
Share on other sites

Δημιουργήστε ένα λογαριασμό ή συνδεθείτε προκειμένου να αφήσετε κάποιο σχόλιο

Πρέπει να είστε μέλος για να μπορέσετε να αφήσετε κάποιο σχόλιο

Δημιουργία λογαριασμού

Κάντε μια δωρεάν εγγραφή στην κοινότητά μας. Είναι εύκολο!

Εγγραφή νέου λογαριασμού

Σύνδεση

Εάν έχετε ήδη λογαριασμό; Συνδεθείτε εδώ.

Συνδεθείτε τώρα

×