Μετάβαση στο περιεχόμενο
  • Enter forum

  • Enter forum

  • Enter forum

    ΞΥΛΟΥΡΗΣ ΔΗΜΗΤΡΗΣ - ΤΣΗ ΝΙΟΤΗΣ ΤΟ ΞΕΚΙΝΗΜΑ (03/2017)

    President
    By President,

    uAGmbXX.jpg

     


    Artist: Ξυλούρης Δημήτρης
    Album: Τση νιότης το ξεκίνημα
    Year: 2017
    Tracks: 11
    Size: 137.1 MB
    Codec: Mp3 / 320 kbps
    Covers: Full&Book

     

    HjBdt.png

     

    Back Cover: Here

     

    RmY8Z.png

    Hidden Content

      Give reaction or reply to this topic to see the hidden content.

     

    logo.png

    Hidden Content

      Give reaction or reply to this topic to see the hidden content.

     

    MCFyYyM.png

    Hidden Content

      Give reaction or reply to this topic to see the hidden content.


    ΠΥΘΑΡΟΥΛΗΣ ΒΑΓΓΕΛΗΣ - ΤΟ ΜΥΣΤΙΚΟ ΜΟΥ (01/2017)

    President
    By President,

    Cw0H0MX.jpg

     


    Artist: Πυθαρούλης Βαγγέλης
    Album: Το μυστικό μου
    Year: 2017
    Tracks: 16
    Size: 179.3 MB
    Codec: Mp3 / 320 kbps
    Covers: Full

     

    HjBdt.png

     

    Back Cover: Here

     

    RmY8Z.png

    Hidden Content

      Give reaction or reply to this topic to see the hidden content.

     

    logo.png

    Hidden Content

      Give reaction or reply to this topic to see the hidden content.

     

    MCFyYyM.png

    Hidden Content

      Give reaction or reply to this topic to see the hidden content.


    THE YOUNG OFFENDERS (2016) BRRip XviD AC3-EVO | ENΣΩΜΑΤΩΜΕΝΟΙ ΥΠΟΤΙΤΛΟΙ

    вирус
    By вирус,

    8HKemjl.jpg

    ΣΚΗΝΟΘΕΣΙΑ : Peter Foott
    ΣΕΝΑΡΙΟ : Peter Foott
    ΗΘΟΠΟΙΟΙ : Alex Murphy, Chris Walley, Hilary Rose
    ΕΙΔΟΣ : Adventure, Comedy, Crime 
    ΠΡΕΜΙΕΡΑ : 16 September 2016 (Ireland)

    ΜΕΤΑΦΡΑΣΗ : Μαρία Ρούσσου

    Δύο κολλητοί νεαροί από το Κορκ, ο Κόνορ κι ο Τζοκ, ντύνονται το ίδιο, δρουν το ίδιο, έχουν ακόμα και το ίδιο μουστακάκι. Ο Τζοκ είναι θρύλος στην κλοπή ποδηλάτων και παίζει καθημερινά το παιχνίδι γάτας-ποντικού με τον αστυφύλακα Χίλι, παθιασμένο με του συγκεκριμένου είδους κλοπή. Όταν ένα καράβι με φορτίο 61 πάκων κοκαΐνης αναποδογυρίζεται στις ακτές του δυτικού Κορκ, αξίας 7 εκατομμυρίων, ο ψίθυρος θέλει να έχει χαθεί η μία ντάνα. Τα αγόρια κλέβουν δύο ποδήλατα και ξεκινούν ταξίδι με την ελπίδα να βρουν το χαμένο φορτίο, το οποίο μπορεί να είναι το εισιτήριο για να ξεφύγουν από τις μίζερες ζωές τους. Αλλά ο χωροφύλακας Χίλι είναι στο κατόπι τους..

    Me0ySkn.jpg


    3sZwobQ.png
    [video]http://www.youtube.com/watch?v=qK-JHjKJRmw[/video]


    TEXNIKA XAΡΑΚΤΗΡΙΣΤΙΚΑ

    General
    Format                      : AVI
    Format/Info                 : Audio Video Interleave
    File size                   : 1.39 GiB
    Duration                    : 1 h 23 min
    Overall bit rate            : 2 378 kb/s
    Writing application         : VirtualDubMod 1.5.10.2 (build 2542/release)
    Writing library             : VirtualDubMod build 2542/release

    Video
    ID                          : 0
    Format                      : MPEG-4 Visual
    Format profile              : Advanced [email protected]
    Format settings, BVOP       : 1
    Format settings, QPel       : No
    Format settings, GMC        : No warppoints
    Format settings, Matrix     : Default (H.263)
    Muxing mode                 : Packed bitstream
    Codec ID                    : XVID
    Codec ID/Hint               : XviD
    Duration                    : 1 h 23 min
    Bit rate                    : 1 923 kb/s
    Width                       : 720 pixels
    Height                      : 304 pixels
    Display aspect ratio        : 2.35:1
    Frame rate                  : 24.000 FPS
    Color space                 : YUV
    Chroma subsampling          : 4:2:0
    Bit depth                   : 8 bits
    Scan type                   : Progressive
    Compression mode            : Lossy
    Bits/(Pixel*Frame)          : 0.366
    Stream size                 : 1.13 GiB (81%)
    Writing library             : XviD 64

    Audio
    ID                          : 1
    Format                      : AC-3
    Format/Info                 : Audio Coding 3
    Format settings, Endianness : Big
    Codec ID                    : 2000
    Duration                    : 1 h 23 min
    Bit rate mode               : Constant
    Bit rate                    : 448 kb/s
    Channel(s)                  : 6 channels
    Channel positions           : Front: L C R, Side: L R, LFE
    Sampling rate               : 48.0 kHz
    Frame rate                  : 31.250 FPS (1536 spf)
    Bit depth                   : 16 bits
    Compression mode            : Lossy
    Stream size                 : 268 MiB (19%)
    Alignment                   : Split accross interleaves
    Interleave, duration        : 64  ms (1.54 video frames)
    Interleave, preload duratio : 500  ms
    Service kind                : Complete Main


    usDrZmS.png

    http://www.imdb.com/title/tt4714568/


    GngRSiQ.png

    hsp9fZM.png

    Hidden Content

      Give reaction or reply to this topic to see the hidden content.


    eCmryx5.png

    Hidden Content

      Give reaction or reply to this topic to see the hidden content.

    WhnxB5b.png

    Hidden Content

      Give reaction or reply to this topic to see the hidden content.


    12 STRONG (2018) BRRip XviD AC3-XVID | ENΣΩΜΑΤΩΜΕΝΟΙ ΥΠΟΤΙΤΛΟΙ

    вирус
    By вирус,

    fcWXwtv.jpg

    ΣΚΗΝΟΘΕΣΙΑ : Nicolai Fuglsig
    ΣΕΝΑΡΙΟ : Ted Tally, Peter Craig
    ΗΘΟΠΟΙΟΙ : Chris Hemsworth, Michael Shannon, Michael Peña
    ΕΙΔΟΣ : Action, Drama, History 
    ΠΡΕΜΙΕΡΑ : 18 January 2018 (Greece)

    ΜΕΤΑΦΡΑΣΗ : Άγνωστος

    Αμέσως μετά την καταστροφή της 11ης Σεπτέμβρη του 2001, μια μονάδα των ειδικών δυνάμεων των ΗΠΑ, υπό την ηγεσία του νέου τους λοχαγού, του Μιτς Νέλσον, επιλέγεται να είναι οι πρώτοι στρατιώτες που θα σταλούν στο Αφγανιστάν για μια ακραία επικίνδυνη αποστολή. Εκεί, ανάμεσα στα άγρια βουνά, πρέπει να πείσουν τον στρατηγό της Βόρειας Συμμαχίας, τον Ντοστούμ, να ενώσει τις δυνάμεις του με αυτούς, ώστε να πολεμήσουν τον κοινό εχθρό: τους Ταλιμπάν και τις δυνάμεις της Αλ Κάιντα....

    EW9GH62.jpg


    3sZwobQ.png
    [video]http://www.youtube.com/watch?v=mG9ctKzLFuw[/video]


    TEXNIKA XAΡΑΚΤΗΡΙΣΤΙΚΑ

    GeneraL
    Format                      : AVI
    Format/Info                 : Audio Video Interleave
    File size                   : 1.87 GiB
    Duration                    : 2 h 9 min
    Overall bit rate            : 2 058 kb/s
    Writing application         : VirtualDubMod 1.5.10.2 (build 2542/release)
    Writing library             : VirtualDubMod build 2542/release

    Video
    ID                          : 0
    Format                      : MPEG-4 Visual
    Format profile              : Advanced [email protected]
    Format settings, BVOP       : 1
    Format settings, QPel       : No
    Format settings, GMC        : No warppoints
    Format settings, Matrix     : Default (H.263)
    Muxing mode                 : Packed bitstream
    Codec ID                    : XVID
    Codec ID/Hint               : XviD
    Duration                    : 2 h 9 min
    Bit rate                    : 1 602 kb/s
    Width                       : 720 pixels
    Height                      : 302 pixels
    Display aspect ratio        : 2.40:1
    Frame rate                  : 23.976 (24000/1001) FPS
    Color space                 : YUV
    Chroma subsampling          : 4:2:0
    Bit depth                   : 8 bits
    Scan type                   : Progressive
    Compression mode            : Lossy
    Bits/(Pixel*Frame)          : 0.307
    Stream size                 : 1.45 GiB (78%)
    Writing library             : XviD 64

    Audio
    ID                          : 1
    Format                      : AC-3
    Format/Info                 : Audio Coding 3
    Format settings, Endianness : Big
    Codec ID                    : 2000
    Duration                    : 2 h 9 min
    Bit rate mode               : Constant
    Bit rate                    : 448 kb/s
    Channel(s)                  : 6 channels
    Channel positions           : Front: L C R, Side: L R, LFE
    Sampling rate               : 48.0 kHz
    Frame rate                  : 31.250 FPS (1536 spf)
    Bit depth                   : 16 bits
    Compression mode            : Lossy
    Stream size                 : 416 MiB (22%)
    Alignment                   : Split accross interleaves
    Interleave, duration        : 64  ms (1.53 video frames)
    Interleave, preload duratio : 500  ms
    Service kind                : Complete Main


    usDrZmS.png

    http://www.imdb.com/title/tt1413492/


    GngRSiQ.png

    hsp9fZM.png

    Hidden Content

      Give reaction or reply to this topic to see the hidden content.


    eCmryx5.png

    Hidden Content

      Give reaction or reply to this topic to see the hidden content.

    WhnxB5b.png

    Hidden Content

      Give reaction or reply to this topic to see the hidden content.

    • 36 απαντήσεις
    • 438 views
    • Add Reply

    ΝΤΑΓΙΑΝΤΑΣ ΜΕΝΕΛΑΟΣ & ΓΙΩΡΓΗΣ - ΖΩΝΤΑΝΗ ΗΧΟΓΡΑΦΗΣΗ (12/2017)

    President
    By President,

    8N5HpN3.jpg

     

    Η ζωντανή αυτή ηχογράφηση πραγματοποιήθηκε στο "Μήλο της Έριδος" στο Ηράκλειο Κρήτης το 2015. Σκοπός αυτής της ηχογράφησης ήταν να καταγράψουμε κυρίως τον "παλμό" και την "ενέργεια" του μουσικού μας πάλκου, δίδοντας την στο κοινό όσο το δυνατόν πιο αυθεντική γίνεται.

     

    Artist: Νταγιαντάς Μενέλαος & Γιώργης
    Album: Ζωντανή ηχογράφηση
    Year: 2017
    Tracks: 08
    Size: 189.5 MB
    Codec: Mp3 / 320 kbps
    Covers: Full

     

    HjBdt.png

     

    Back Cover: Here

     

    RmY8Z.png

    Hidden Content

      Give reaction or reply to this topic to see the hidden content.

     

    logo.png

    Hidden Content

      Give reaction or reply to this topic to see the hidden content.

     

    MCFyYyM.png

    Hidden Content

      Give reaction or reply to this topic to see the hidden content.


Portal by DevFuse · Based on IP.Board Portal by IPS
×