Μετάβαση στο περιεχόμενο

.:Sexmeup:.

Moderators
  • Περιεχόμενα

    8.757
  • Εντάχθηκε

  • Τελευταία επίσκεψη

  • Days Won

    8

.:Sexmeup:. last won the day on Ιούνιος 14 2016

.:Sexmeup:. had the most liked content!

Φήμη στην κοινότητα

1.404 Excellent

Σχετικά .:Sexmeup:.

  • Κατάταξη:
    Advanced Member

Profile Information

  • Country
    Greece
  • Gender
    Male
  • Gender
    Male
  • Gender
    Male

Τελευταίοι επισκέπτες προφίλ

890 profile views
  1. Είδος Ταινίας: Action, Fantasy, Horror Πρεμιέρα: 22 March 2007 (Greece) Σκηνοθέτης: Mark Steven Johnson Σενάριο: Mark Steven Johnson (screenplay), Mark Steven Johnson (screen story) Ηθοποιοί: Nicolas Cage, Eva Mendes, Sam Elliott Υπότιτλοι: Ελληνικοί Ενσωματωμένοι & Σε Ξεχωριστό Αρχείο Μετάφραση: matthew Διάρκεια: 114' Καταλληλότητα: - encoder: .:Sexmeup:. Πηγή: Extended.Version.2007.1080p.BluRay.x264-SECTOR7 Υπόθεση: Προκειμένου να σώσει την ζωή του πατέρα του ο Johnny Blaze πουλά την ψυχή του στον Μεφιστοφελή και αναγκάζεται να χωρίσει από την αγαπημένη του Roxanne. Αρκετά χρόνια μετά ξανασυναντιέται με την Roxanne που είναι πλέον δημοσιογράφος αλλά και με τον Μεφιστοφελή ο οποίος είναι πρόθυμος να ελευθερώσει την ψυχή του Blaze αν αυτός μετατραπεί στον Ghost Rider, έναν εκδικητή, και θέσει τις υπηρεσίες του στην διάθεση του Μεφιστοφελή. Ο Μεφιστοφελής του αναθέτει να εξοντώσει τον γιό του, Blackheart, που απειλεί να εκθρονίσει τον πατέρα και να δημιουργήσει μία κόλαση ακόμη χειρότερη από την υπάρχουσα. Η κόλαση πρόκειται να εξαπολυθεί. ΑΝ ΘΕΛΕΤΕ ΝΑ ΣΤΗΡΙΞΕΤΕ ΤΗΝ ΔΟΥΛΕΙΑ ΜΟΥ ΚΑΝΤΕ ΕΥΚΟΛΑ ΚΑΙ ΓΡΗΓΟΡΑ ΛΟΓΑΡΙΑΣΜΟ ΣΤΟ EASYBYTEZ KAI KATEΒΑΣΤΕ ΣΑΝ PREMIUM AΠO 20 HOST!! http://www.easybytez.com/free2771.html [Hidden Content] [Hidden Content] [Hidden Content]
  2. Είδος Ταινίας: Action, Fantasy, Horror Πρεμιέρα: 22 March 2007 (Greece) Σκηνοθέτης: Mark Steven Johnson Σενάριο: Mark Steven Johnson (screenplay), Mark Steven Johnson (screen story) Ηθοποιοί: Nicolas Cage, Eva Mendes, Sam Elliott Υπότιτλοι: Ελληνικοί Ενσωματωμένοι & Σε Ξεχωριστό Αρχείο Μετάφραση: matthew Διάρκεια: 114' Καταλληλότητα: - encoder: .:Sexmeup:. Πηγή: Extended.Version.2007.1080p.BluRay.x264-SECTOR7 Υπόθεση: Προκειμένου να σώσει την ζωή του πατέρα του ο Johnny Blaze πουλά την ψυχή του στον Μεφιστοφελή και αναγκάζεται να χωρίσει από την αγαπημένη του Roxanne. Αρκετά χρόνια μετά ξανασυναντιέται με την Roxanne που είναι πλέον δημοσιογράφος αλλά και με τον Μεφιστοφελή ο οποίος είναι πρόθυμος να ελευθερώσει την ψυχή του Blaze αν αυτός μετατραπεί στον Ghost Rider, έναν εκδικητή, και θέσει τις υπηρεσίες του στην διάθεση του Μεφιστοφελή. Ο Μεφιστοφελής του αναθέτει να εξοντώσει τον γιό του, Blackheart, που απειλεί να εκθρονίσει τον πατέρα και να δημιουργήσει μία κόλαση ακόμη χειρότερη από την υπάρχουσα. Η κόλαση πρόκειται να εξαπολυθεί. ΑΝ ΘΕΛΕΤΕ ΝΑ ΣΤΗΡΙΞΕΤΕ ΤΗΝ ΔΟΥΛΕΙΑ ΜΟΥ ΚΑΝΤΕ ΕΥΚΟΛΑ ΚΑΙ ΓΡΗΓΟΡΑ ΛΟΓΑΡΙΑΣΜΟ ΣΤΟ EASYBYTEZ KAI KATEΒΑΣΤΕ ΣΑΝ PREMIUM AΠO 20 HOST!! http://www.easybytez.com/free2771.html [Hidden Content] [Hidden Content] [Hidden Content]
  3. Είδος Ταινίας: Biography, Sport Πρεμιέρα: TV Movie 7 April 2018 Σκηνοθέτης: Barry Levinson Σενάριο: Debora Cahn, John C. Richards Ηθοποιοί: Al Pacino, Kathy Baker, Kenneth Maharaj Υπότιτλοι: Ελληνικοί Ενσωματωμένοι & Σε Ξεχωριστό Αρχείο Μετάφραση: Stringer Διάρκεια: 105' Καταλληλότητα: - encoder: .:Sexmeup:. Πηγή: 1080p.AMZN.WEB-DL.DDP5.1.H.264-monkee Υπόθεση: Το φίλμ εστιάζει στον Joe Paterno, τον πολυνίκη προπονητή του κολεγιακού football, ο οποίος παρασύρεται μέσα στο σκάνδαλο του Jerry Sandusky και της σεξουαλικής κακοποίησης στο Penn State. Μια εξέλιξη που θα αμφισβητήσει την κληρονομιά του και που θα τον αναγκάσει να απαντήσει στις ερωτήσεις γύρω απο τις θεσμικές αποτυχίες που άφησαν απροστάτευτα τα θύματα του Jerry Sandusky. ΑΝ ΘΕΛΕΤΕ ΝΑ ΣΤΗΡΙΞΕΤΕ ΤΗΝ ΔΟΥΛΕΙΑ ΜΟΥ ΚΑΝΤΕ ΕΥΚΟΛΑ ΚΑΙ ΓΡΗΓΟΡΑ ΛΟΓΑΡΙΑΣΜΟ ΣΤΟ EASYBYTEZ KAI KATEΒΑΣΤΕ ΣΑΝ PREMIUM AΠO 20 HOST!! http://www.easybytez.com/free2771.html [Hidden Content] [Hidden Content] [Hidden Content]
  4. Είδος Ταινίας: Biography, Sport Πρεμιέρα: TV Movie 7 April 2018 Σκηνοθέτης: Barry Levinson Σενάριο: Debora Cahn, John C. Richards Ηθοποιοί: Al Pacino, Kathy Baker, Kenneth Maharaj Υπότιτλοι: Ελληνικοί Ενσωματωμένοι & Σε Ξεχωριστό Αρχείο Μετάφραση: Stringer Διάρκεια: 105' Καταλληλότητα: - encoder: .:Sexmeup:. Πηγή: 1080p.AMZN.WEB-DL.DDP5.1.H.264-monkee Υπόθεση: Το φίλμ εστιάζει στον Joe Paterno, τον πολυνίκη προπονητή του κολεγιακού football, ο οποίος παρασύρεται μέσα στο σκάνδαλο του Jerry Sandusky και της σεξουαλικής κακοποίησης στο Penn State. Μια εξέλιξη που θα αμφισβητήσει την κληρονομιά του και που θα τον αναγκάσει να απαντήσει στις ερωτήσεις γύρω απο τις θεσμικές αποτυχίες που άφησαν απροστάτευτα τα θύματα του Jerry Sandusky. ΑΝ ΘΕΛΕΤΕ ΝΑ ΣΤΗΡΙΞΕΤΕ ΤΗΝ ΔΟΥΛΕΙΑ ΜΟΥ ΚΑΝΤΕ ΕΥΚΟΛΑ ΚΑΙ ΓΡΗΓΟΡΑ ΛΟΓΑΡΙΑΣΜΟ ΣΤΟ EASYBYTEZ KAI KATEΒΑΣΤΕ ΣΑΝ PREMIUM AΠO 20 HOST!! http://www.easybytez.com/free2771.html [Hidden Content] [Hidden Content] [Hidden Content]
  5. Είδος Ταινίας: Biography, Drama, Sport Πρεμιέρα: 12 April 2013 (USA) Σκηνοθέτης: Brian Helgeland Σενάριο: Brian Helgeland Ηθοποιοί: Chadwick Boseman, T.R. Knight, Harrison Ford Υπότιτλοι: Ελληνικοί Ενσωματωμένοι & Σε Ξεχωριστό Αρχείο Μετάφραση: nancymiami Διάρκεια: 128' Καταλληλότητα: - encoder: .:Sexmeup:. Πηγή: 1080p.BluRay.x264-SPARKS Υπόθεση: Η ιστορία του θρυλικού Τζάκι Ρόμπινσον, του παίκτη του μπέιζμπολ που έσπασε τα ρατσιστικά δεδομένα στον αμερικανικό αθλητισμό, παίζοντας υπό την καθοδήγηση του Μπράντς Ρίκεϊ στους Brooklyn Dodgers. Σε ένα παιχνίδι διαχωρισμένο σε χρώματα, μας έκανε να δούμε μεγαλείο. Extras: Ο ρόλος του Ρίκεϊ αρχικά προορίζονταν για τον Robert Redford. Η ταινία έχει προγραμματιστεί να κάνει πρεμιέρα στις ΗΠΑ στις 12 Απριλίου. Αυτή η ημέρα είναι γνωστή ως Jackie Robinson Day, αφού τότε έκανε ντεμπούτο ο Ρόμπινσον με τους Dodgers. ΑΝ ΘΕΛΕΤΕ ΝΑ ΣΤΗΡΙΞΕΤΕ ΤΗΝ ΔΟΥΛΕΙΑ ΜΟΥ ΚΑΝΤΕ ΕΥΚΟΛΑ ΚΑΙ ΓΡΗΓΟΡΑ ΛΟΓΑΡΙΑΣΜΟ ΣΤΟ EASYBYTEZ KAI KATEΒΑΣΤΕ ΣΑΝ PREMIUM AΠO 20 HOST!! http://www.easybytez.com/free2771.html [Hidden Content] [Hidden Content] [Hidden Content]
  6. Είδος Ταινίας: Biography, Drama, Sport Πρεμιέρα: 12 April 2013 (USA) Σκηνοθέτης: Brian Helgeland Σενάριο: Brian Helgeland Ηθοποιοί: Chadwick Boseman, T.R. Knight, Harrison Ford Υπότιτλοι: Ελληνικοί Ενσωματωμένοι & Σε Ξεχωριστό Αρχείο Μετάφραση: nancymiami Διάρκεια: 128' Καταλληλότητα: - encoder: .:Sexmeup:. Πηγή: 1080p.BluRay.x264-SPARKS Υπόθεση: Η ιστορία του θρυλικού Τζάκι Ρόμπινσον, του παίκτη του μπέιζμπολ που έσπασε τα ρατσιστικά δεδομένα στον αμερικανικό αθλητισμό, παίζοντας υπό την καθοδήγηση του Μπράντς Ρίκεϊ στους Brooklyn Dodgers. Σε ένα παιχνίδι διαχωρισμένο σε χρώματα, μας έκανε να δούμε μεγαλείο. Extras: Ο ρόλος του Ρίκεϊ αρχικά προορίζονταν για τον Robert Redford. Η ταινία έχει προγραμματιστεί να κάνει πρεμιέρα στις ΗΠΑ στις 12 Απριλίου. Αυτή η ημέρα είναι γνωστή ως Jackie Robinson Day, αφού τότε έκανε ντεμπούτο ο Ρόμπινσον με τους Dodgers. ΑΝ ΘΕΛΕΤΕ ΝΑ ΣΤΗΡΙΞΕΤΕ ΤΗΝ ΔΟΥΛΕΙΑ ΜΟΥ ΚΑΝΤΕ ΕΥΚΟΛΑ ΚΑΙ ΓΡΗΓΟΡΑ ΛΟΓΑΡΙΑΣΜΟ ΣΤΟ EASYBYTEZ KAI KATEΒΑΣΤΕ ΣΑΝ PREMIUM AΠO 20 HOST!! http://www.easybytez.com/free2771.html [Hidden Content] [Hidden Content] [Hidden Content]
  7. Είδος Ταινίας: Comedy Πρεμιέρα: 13 July 2017 (Greece) Σκηνοθέτης: Philippe de Chauveron Σενάριο: Guy Laurent (screenplay), Marc de Chauveron (screenplay) Ηθοποιοί: Christian Clavier, Ary Abittan, Elsa Zylberstein Υπότιτλοι: Ελληνικοί Ενσωματωμένοι & Σε Ξεχωριστό Αρχείο Ελληνικός Τίτλος: Βρε, Καλώς τους! Γνωστό και ως: A bras ouverts Μετάφραση: Mafiozos68 Διάρκεια: 92' Καταλληλότητα: - encoder: .:Sexmeup:. Πηγή: FRENCH.1080p.BluRay.DTS.x264-LOST Υπόθεση: Μια προσωπικότητα στη γαλλική λογοτεχνία και τα μέσα ενημέρωσης, ο Ζαν-Ετιέν Φουγκερόλ, παντρεμένος με μια πλούσια κληρονόμο, προωθεί το νέο του βιβλίο «Με Ανοιχτές Αγκάλες» σε τηλεοπτική συνέντευξη. Αλλά ενώ το θέμα του βιβλίου αφορά το να ανοίξουμε το σπίτι μας σε όσους το έχουν ανάγκη, ο παρουσιαστής προκαλεί τον Ζαν-Ετιέν να εφαρμόσει όσα υποστηρίζει στο έργο του. Μη θέλοντας να τον αποκαλέσουν υποκριτή, αποδέχεται την πρόκληση, χωρίς να γνωρίζει το χάος που θα επακολουθήσει. ΑΝ ΘΕΛΕΤΕ ΝΑ ΣΤΗΡΙΞΕΤΕ ΤΗΝ ΔΟΥΛΕΙΑ ΜΟΥ ΚΑΝΤΕ ΕΥΚΟΛΑ ΚΑΙ ΓΡΗΓΟΡΑ ΛΟΓΑΡΙΑΣΜΟ ΣΤΟ EASYBYTEZ KAI KATEΒΑΣΤΕ ΣΑΝ PREMIUM AΠO 20 HOST!! http://www.easybytez.com/free2771.html [Hidden Content] [Hidden Content] [Hidden Content]
  8. Είδος Ταινίας: Comedy Πρεμιέρα: 13 July 2017 (Greece) Σκηνοθέτης: Philippe de Chauveron Σενάριο: Guy Laurent (screenplay), Marc de Chauveron (screenplay) Ηθοποιοί: Christian Clavier, Ary Abittan, Elsa Zylberstein Υπότιτλοι: Ελληνικοί Ενσωματωμένοι & Σε Ξεχωριστό Αρχείο Ελληνικός Τίτλος: Βρε, Καλώς τους! Γνωστό και ως: A bras ouverts Μετάφραση: Mafiozos68 Διάρκεια: 92' Καταλληλότητα: - encoder: .:Sexmeup:. Πηγή: FRENCH.1080p.BluRay.DTS.x264-LOST Υπόθεση: Μια προσωπικότητα στη γαλλική λογοτεχνία και τα μέσα ενημέρωσης, ο Ζαν-Ετιέν Φουγκερόλ, παντρεμένος με μια πλούσια κληρονόμο, προωθεί το νέο του βιβλίο «Με Ανοιχτές Αγκάλες» σε τηλεοπτική συνέντευξη. Αλλά ενώ το θέμα του βιβλίου αφορά το να ανοίξουμε το σπίτι μας σε όσους το έχουν ανάγκη, ο παρουσιαστής προκαλεί τον Ζαν-Ετιέν να εφαρμόσει όσα υποστηρίζει στο έργο του. Μη θέλοντας να τον αποκαλέσουν υποκριτή, αποδέχεται την πρόκληση, χωρίς να γνωρίζει το χάος που θα επακολουθήσει. ΑΝ ΘΕΛΕΤΕ ΝΑ ΣΤΗΡΙΞΕΤΕ ΤΗΝ ΔΟΥΛΕΙΑ ΜΟΥ ΚΑΝΤΕ ΕΥΚΟΛΑ ΚΑΙ ΓΡΗΓΟΡΑ ΛΟΓΑΡΙΑΣΜΟ ΣΤΟ EASYBYTEZ KAI KATEΒΑΣΤΕ ΣΑΝ PREMIUM AΠO 20 HOST!! http://www.easybytez.com/free2771.html [Hidden Content] [Hidden Content] [Hidden Content]
  9. Είδος Ταινίας: Comedy Πρεμιέρα: 10 August 2012 (USA) Σκηνοθέτης: Jay Roach Σενάριο: Chris Henchy (screenplay), Shawn Harwell (screenplay) Ηθοποιοί: Will Ferrell, Zach Galifianakis, Jason Sudeikis Υπότιτλοι: Ελληνικοί Ενσωματωμένοι & Σε Ξεχωριστό Αρχείο Ελληνικός Τίτλος: Οι Υποψήφιοι Μετάφραση: tabjeep Διάρκεια: 85' Καταλληλότητα: Υπόθεση: Όταν ο χρόνια εκλεγμένος στο κογκρέσο Καμ Μπρέιντι υποπίπτει σε μεγάλη δημόσια γκάφα πριν από τις κρίσιμες εκλογές της πολιτείας της Νότιας Καρολίνας, ένα ζευγάρι πλούσιων επιχειρηματιών βρίσκει την ευκαιρία να προωθήσει έναν δικό του υποψήφιο, ώστε να είναι αυτοί οι ισχυρότεροι της πολιτείας. Αυτός ο άντρας είναι ο Μάρτι Χάγκινς, ο αφελής διευθυντής του τοπικού οργανισμού τουρισμού. Μπορεί αρχικά να φαίνεται η πιο ακατάλληλη επιλογή, γρήγορα με τη βοήθεια των χρημάτων των δύο επιχειρηματιών, την επιρροή που ασκεί η οικογένεια του σε πολιτικούς κι ενός «σαρκοφάγου» μάνατζερ για την προεκλογική εκστρατεία, γίνει άξιος αντίπαλος του Μπρέιντι. Είθε να κερδίσει ο χειρότερος. http://www.imdb.com/title/tt1790886/[/CODE] [IMG=http://c1.staticflickr.com/5/4780/40089464785_599858f97a_o.png] [IMG=http://farm1.staticflickr.com/874/28486007058_69fb97b8ba_o.jpg] [IMG=http://c1.staticflickr.com/1/799/40982563121_97d9e4fb96_o.png] [video=youtube;4qQ6UcU_JiE]http://www.youtube.com/watch?v=4qQ6UcU_JiE[/video] [FONT=verdana][B]TEXNIKA XAΡΑΚΤΗΡΙΣΤΙΚΑ [/B][/FONT] [SPOILER] [CODE] General Complete name CUsersAdministratorDownloadsthecampaign1080brsexmeupThe.Campaign.2012.EXTENDED.CUT.1080p.BluRay.x264-SPARKS.mkv Format Matroska Format version Version 2 File size 6.55 GiB Duration 1 h 35 min Overall bit rate 9 806 kbs Writing application mkvmerge v4.1.1 ('Bouncin' Back') built on Jul 3 2010 225408 Writing library libebml v1.0.0 + libmatroska v1.0 Video ID 1 Format AVC FormatInfo Advanced Video Codec Format profile [email protected] Format settings CABAC 4 Ref Frames Format settings, CABAC Yes Format settings, RefFrames 4 frames Codec ID V_MPEG4ISOAVC Duration 1 h 35 min Bit rate 8 299 kbs Width 1 920 pixels Height 1 080 pixels Display aspect ratio 169 Frame rate mode Constant Frame rate 23.976 FPS Color space YUV Chroma subsampling 420 Bit depth 8 bits Scan type Progressive Bits(PixelFrame) 0.167 Stream size 5.41 GiB (83%) Writing library x264 core 128 r2216 198a7ea Encoding settings cabac=1 ref=4 deblock=100 analyse=0x30x133 me=umh subme=7 psy=1 psy_rd=1.000.00 mixed_ref=1 me_range=16 chroma_me=1 trellis=1 8x8dct=1 cqm=0 deadzone=21,11 fast_pskip=0 chroma_qp_offset=-2 threads=12 lookahead_threads=2 sliced_threads=0 nr=0 decimate=1 interlaced=0 bluray_compat=0 constrained_intra=0 bframes=3 b_pyramid=2 b_adapt=1 b_bias=0 direct=1 weightb=1 open_gop=0 weightp=2 keyint=250 keyint_min=23 scenecut=40 intra_refresh=0 rc_lookahead=40 rc=2pass mbtree=1 bitrate=8299 ratetol=1.0 qcomp=0.60 qpmin=0 qpmax=69 qpstep=4 cplxblur=20.0 qblur=0.5 ip_ratio=1.40 aq=11.00 Language English Default Yes Forced No Audio ID 2 Format DTS FormatInfo Digital Theater Systems Codec ID A_DTS Duration 1 h 35 min Bit rate mode Constant Bit rate 1 509 kbs Channel(s) 6 channels Channel positions Front L C R, Side L R, LFE Sampling rate 48.0 kHz Frame rate 93.750 FPS (512 SPF) Bit depth 24 bits Compression mode Lossy Stream size 1.01 GiB (15%) Language English Default Yes Forced No Text ID 3 Format UTF-8 Codec ID S_TEXTUTF8 Codec IDInfo UTF-8 Plain Text Language English Default No Forced No [/CODE] [/SPOILER] [IMG=http://c1.staticflickr.com/1/791/39173997270_2f2136d533_o.png] [IMG=http://c1.staticflickr.com/1/789/39174288770_254a09d05d_o.png] [SIZE=3][FONT=verdana][B]ΑΝ ΘΕΛΕΤΕ ΝΑ ΣΤΗΡΙΞΕΤΕ ΤΗΝ ΔΟΥΛΕΙΑ ΜΟΥ ΚΑΝΤΕ ΕΥΚΟΛΑ ΚΑΙ ΓΡΗΓΟΡΑ ΛΟΓΑΡΙΑΣΜΟ ΣΤΟ [COLOR=#ff0000]EASYBYTEZ [/COLOR]KAI KATEΒΑΣΤΕ ΣΑΝ PREMIUM AΠO [COLOR=#ff0000]20 [/COLOR]HOST!! [COLOR=#ff0000]http://www.easybytez.com/free2771.html[/COLOR][/B][/FONT][/SIZE][/CENTER] [Hidden Content] [CENTER][IMG=http://c1.staticflickr.com/1/812/26112042877_04292fbd5e_o.png] [/CENTER] [Hidden Content][CENTER][Hidden Content] [IMG=http://c1.staticflickr.com/5/4786/40089466905_8e4a5d3f42_o.png] [/CENTER]
  10. Είδος Ταινίας: Action, Fantasy, Thriller Πρεμιέρα: 10 May 2012 (Greece) Σκηνοθέτης: Mark Neveldine (as Neveldine), Brian Taylor (as Taylor) Σενάριο: Scott M. Gimple (screenplay), Seth Hoffman (screenplay) Ηθοποιοί: Nicolas Cage, Ciaran Hinds, Idris Elba Υπότιτλοι: Ελληνικοί Ενσωματωμένοι & Σε Ξεχωριστό Αρχείο Ελληνικός Τίτλος: Ghost Rider: Το πνεύμα της εκδίκησης Μετάφραση: marios1909 Διάρκεια: 96' Καταλληλότητα: Υπόθεση: Έχουν πλέον περάσει αρκετά χρόνια από τότε που έκανε τη συμφωνία με τον διάβολο και τώρα ο Τζόνι Μπλέιζ ζει απομακρυσμένος από τον κόσμο. Μέχρι τη στιγμή που θα ανακαλύψει πως είναι ο μοναδικός που μπορεί να σώσει τον 10χρονο Ντάνι και για άλλη μία φορά τον κόσμο χάρη στη μοναδική, ανεξέλεγκτη δύναμή του, που είναι την ίδια στιγμή και η κατάρα του: να μεταμορφώνεται στο τέρας που σπέρνει την κόλαση κάτω από τις ρόδες του, γνωστό ως «Ghost Rider». Ο καβαλάρης επιστρέφει. Extras: Η ταινία είναι τρισδιάστατη. Γυρίσματα σε Ρουμανία και Τουρκία. http://www.imdb.com/title/tt1071875/[/CODE] [IMG=http://c1.staticflickr.com/5/4780/40089464785_599858f97a_o.png] [IMG=http://farm2.staticflickr.com/1757/42318208452_2e2d2e37a0_o.jpg] [IMG=http://c1.staticflickr.com/1/799/40982563121_97d9e4fb96_o.png] [video=youtube;UUObgxCoUgA]http://www.youtube.com/watch?v=UUObgxCoUgA[/video] [FONT=verdana][B]TEXNIKA XAΡΑΚΤΗΡΙΣΤΙΚΑ [/B][/FONT] [SPOILER] [CODE] General Complete name : C:\Users\Administrator\Downloads\ghostriderofvengeance1080brsexmeup\Ghost.Rider.Spirit.Of.Vengeance.2011.1080p.BluRay.X264-SPARKS.mkv Format : Matroska Format version : Version 2 File size : 6.55 GiB Duration : 1 h 35 min Overall bit rate : 9 816 kb/s Writing application : mkvmerge v4.1.1 ('Bouncin' Back') built on Jul 3 2010 22:54:08 Writing library : libebml v1.0.0 + libmatroska v1.0 Video ID : 1 Format : AVC Format/Info : Advanced Video Codec Format profile : [email protected] Format settings : CABAC / 5 Ref Frames Format settings, CABAC : Yes Format settings, RefFrames : 5 frames Codec ID : V_MPEG4/ISO/AVC Duration : 1 h 35 min Bit rate : 8 310 kb/s Width : 1 920 pixels Height : 800 pixels Display aspect ratio : 2.40:1 Frame rate mode : Constant Frame rate : 23.976 FPS Color space : YUV Chroma subsampling : 4:2:0 Bit depth : 8 bits Scan type : Progressive Bits/(Pixel*Frame) : 0.226 Stream size : 5.41 GiB (83%) Writing library : x264 core 125 r2200 999b753 Encoding settings : cabac=1 / ref=5 / deblock=1:0:0 / analyse=0x3:0x133 / me=umh / subme=7 / psy=1 / psy_rd=1.00:0.00 / mixed_ref=1 / me_range=16 / chroma_me=1 / trellis=1 / 8x8dct=1 / cqm=0 / deadzone=21,11 / fast_pskip=0 / chroma_qp_offset=-2 / threads=12 / lookahead_threads=2 / sliced_threads=0 / nr=0 / decimate=1 / interlaced=0 / bluray_compat=0 / constrained_intra=0 / bframes=3 / b_pyramid=2 / b_adapt=1 / b_bias=0 / direct=1 / weightb=1 / open_gop=0 / weightp=2 / keyint=250 / keyint_min=23 / scenecut=40 / intra_refresh=0 / rc_lookahead=40 / rc=2pass / mbtree=1 / bitrate=8310 / ratetol=1.0 / qcomp=0.60 / qpmin=0 / qpmax=69 / qpstep=4 / cplxblur=20.0 / qblur=0.5 / ip_ratio=1.40 / aq=1:1.00 Language : English Default : Yes Forced : No Audio ID : 2 Format : DTS Format/Info : Digital Theater Systems Codec ID : A_DTS Duration : 1 h 35 min Bit rate mode : Constant Bit rate : 1 509 kb/s Channel(s) : 6 channels Channel positions : Front: L C R, Side: L R, LFE Sampling rate : 48.0 kHz Frame rate : 93.750 FPS (512 SPF) Bit depth : 24 bits Compression mode : Lossy Stream size : 1.01 GiB (15%) Language : English Default : Yes Forced : No Text #1 ID : 3 Format : UTF-8 Codec ID : S_TEXT/UTF8 Codec ID/Info : UTF-8 Plain Text Title : Forced Language : English Default : Yes Forced : Yes Text #2 ID : 4 Format : UTF-8 Codec ID : S_TEXT/UTF8 Codec ID/Info : UTF-8 Plain Text Language : English Default : No Forced : No Text #3 ID : 5 Format : UTF-8 Codec ID : S_TEXT/UTF8 Codec ID/Info : UTF-8 Plain Text Language : English Default : No Forced : No [/CODE] [/SPOILER] [IMG=http://c1.staticflickr.com/1/791/39173997270_2f2136d533_o.png] [IMG=http://c1.staticflickr.com/1/789/39174288770_254a09d05d_o.png] [SIZE=3][FONT=verdana][B]ΑΝ ΘΕΛΕΤΕ ΝΑ ΣΤΗΡΙΞΕΤΕ ΤΗΝ ΔΟΥΛΕΙΑ ΜΟΥ ΚΑΝΤΕ ΕΥΚΟΛΑ ΚΑΙ ΓΡΗΓΟΡΑ ΛΟΓΑΡΙΑΣΜΟ ΣΤΟ [COLOR=#ff0000]EASYBYTEZ [/COLOR]KAI KATEΒΑΣΤΕ ΣΑΝ PREMIUM AΠO [COLOR=#ff0000]20 [/COLOR]HOST!! [COLOR=#ff0000]http://www.easybytez.com/free2771.html[/COLOR][/B][/FONT][/SIZE][/CENTER] [Hidden Content] [CENTER][IMG=http://c1.staticflickr.com/1/812/26112042877_04292fbd5e_o.png] [/CENTER] [Hidden Content] [CENTER][Hidden Content] [IMG=http://c1.staticflickr.com/5/4786/40089466905_8e4a5d3f42_o.png] [/CENTER] [FONT=Verdana] [/FONT]
  11. Είδος Ταινίας: Drama Πρεμιέρα: 23 July 2015 (Colombia) Σκηνοθέτης: Cesar Augusto Acevedo Σενάριο: Cesar Augusto Acevedo Ηθοποιοί: Haimer Leal, Hilda Ruiz, Edison Raigosa Υπότιτλοι: Ελληνικοί Ενσωματωμένοι & Σε Ξεχωριστό Αρχείο Ελληνικός Τίτλος: Η Γη και η Σκιά Γνωστό και ως: La tierra y la sombra Μετάφραση: MedievalGuy Διάρκεια: 97' Καταλληλότητα: - encoder: .:Sexmeup:. Πηγή: 720p.2015.WEB-DL.x264.HORiZON Υπόθεση: Με φόντο μια φυτεία ζαχαροκάλαμου στην Κολομβία, ένας εργάτης επιστρέφει στο σπίτι του ύστερα από πολλά χρόνια. Επανασυνδέεται με την πρώην γυναίκα του και τον άρρωστο γιο του, και γνωρίζει για πρώτη φορά τη νύφη και τον εγγονό του. Extras: Χρυσή Κάμερα στο φεστιβάλ των Κανών. ΑΝ ΘΕΛΕΤΕ ΝΑ ΣΤΗΡΙΞΕΤΕ ΤΗΝ ΔΟΥΛΕΙΑ ΜΟΥ ΚΑΝΤΕ ΕΥΚΟΛΑ ΚΑΙ ΓΡΗΓΟΡΑ ΛΟΓΑΡΙΑΣΜΟ ΣΤΟ EASYBYTEZ KAI KATEΒΑΣΤΕ ΣΑΝ PREMIUM AΠO 20 HOST!! http://www.easybytez.com/free2771.html [Hidden Content] [Hidden Content] [Hidden Content]
  12. Είδος Ταινίας: Action, Fantasy, Thriller Πρεμιέρα: 10 May 2012 (Greece) Σκηνοθέτης: Mark Neveldine (as Neveldine), Brian Taylor (as Taylor) Σενάριο: Scott M. Gimple (screenplay), Seth Hoffman (screenplay) Ηθοποιοί: Nicolas Cage, Ciaran Hinds, Idris Elba Υπότιτλοι: Ελληνικοί Ενσωματωμένοι & Σε Ξεχωριστό Αρχείο Ελληνικός Τίτλος: Ghost Rider: Το πνεύμα της εκδίκησης Μετάφραση: marios1909 Διάρκεια: 96' Καταλληλότητα: - encoder: .:Sexmeup:. Πηγή: 1080p.BluRay.X264-SPARKS Υπόθεση: Έχουν πλέον περάσει αρκετά χρόνια από τότε που έκανε τη συμφωνία με τον διάβολο και τώρα ο Τζόνι Μπλέιζ ζει απομακρυσμένος από τον κόσμο. Μέχρι τη στιγμή που θα ανακαλύψει πως είναι ο μοναδικός που μπορεί να σώσει τον 10χρονο Ντάνι και για άλλη μία φορά τον κόσμο χάρη στη μοναδική, ανεξέλεγκτη δύναμή του, που είναι την ίδια στιγμή και η κατάρα του: να μεταμορφώνεται στο τέρας που σπέρνει την κόλαση κάτω από τις ρόδες του, γνωστό ως «Ghost Rider». Ο καβαλάρης επιστρέφει. Extras: Η ταινία είναι τρισδιάστατη. Γυρίσματα σε Ρουμανία και Τουρκία. ΑΝ ΘΕΛΕΤΕ ΝΑ ΣΤΗΡΙΞΕΤΕ ΤΗΝ ΔΟΥΛΕΙΑ ΜΟΥ ΚΑΝΤΕ ΕΥΚΟΛΑ ΚΑΙ ΓΡΗΓΟΡΑ ΛΟΓΑΡΙΑΣΜΟ ΣΤΟ EASYBYTEZ KAI KATEΒΑΣΤΕ ΣΑΝ PREMIUM AΠO 20 HOST!! http://www.easybytez.com/free2771.html [Hidden Content] [Hidden Content] [Hidden Content]
  13. Είδος Ταινίας: Action, Fantasy, Thriller Πρεμιέρα: 10 May 2012 (Greece) Σκηνοθέτης: Mark Neveldine (as Neveldine), Brian Taylor (as Taylor) Σενάριο: Scott M. Gimple (screenplay), Seth Hoffman (screenplay) Ηθοποιοί: Nicolas Cage, Ciaran Hinds, Idris Elba Υπότιτλοι: Ελληνικοί Ενσωματωμένοι & Σε Ξεχωριστό Αρχείο Ελληνικός Τίτλος: Ghost Rider: Το πνεύμα της εκδίκησης Μετάφραση: marios1909 Διάρκεια: 96' Καταλληλότητα: - encoder: .:Sexmeup:. Πηγή: 1080p.BluRay.X264-SPARKS Υπόθεση: Έχουν πλέον περάσει αρκετά χρόνια από τότε που έκανε τη συμφωνία με τον διάβολο και τώρα ο Τζόνι Μπλέιζ ζει απομακρυσμένος από τον κόσμο. Μέχρι τη στιγμή που θα ανακαλύψει πως είναι ο μοναδικός που μπορεί να σώσει τον 10χρονο Ντάνι και για άλλη μία φορά τον κόσμο χάρη στη μοναδική, ανεξέλεγκτη δύναμή του, που είναι την ίδια στιγμή και η κατάρα του: να μεταμορφώνεται στο τέρας που σπέρνει την κόλαση κάτω από τις ρόδες του, γνωστό ως «Ghost Rider». Ο καβαλάρης επιστρέφει. Extras: Η ταινία είναι τρισδιάστατη. Γυρίσματα σε Ρουμανία και Τουρκία. ΑΝ ΘΕΛΕΤΕ ΝΑ ΣΤΗΡΙΞΕΤΕ ΤΗΝ ΔΟΥΛΕΙΑ ΜΟΥ ΚΑΝΤΕ ΕΥΚΟΛΑ ΚΑΙ ΓΡΗΓΟΡΑ ΛΟΓΑΡΙΑΣΜΟ ΣΤΟ EASYBYTEZ KAI KATEΒΑΣΤΕ ΣΑΝ PREMIUM AΠO 20 HOST!! http://www.easybytez.com/free2771.html [Hidden Content] [Hidden Content] [Hidden Content]
  14. Είδος Ταινίας: Κωμωδία Πρεμιέρα: Πεμ 22 Φεβ 2018 Σκηνοθέτης: Στράτος Μαρκίδης Σενάριο: Στράτος Μαρκίδης Ηθοποιοί: Κώστας Αποστολάκης, Μπέσυ Μάλφα, Σωτήρης Καλυβάτσης, Αντώνης Καφετζόπουλος Υπότιτλοι: Ελληνικοί Ενσωματωμένοι & Σε Ξεχωριστό Αρχείο Μετάφραση: Ελληνικός Ήχος Διάρκεια: 130' Καταλληλότητα: - encoder: .:Sexmeup:. Πηγή: 720p.HDTV.x264-GrLTv Υπόθεση: Ο Σωτήρης Παπακώστας εργάζεται ως υπεύθυνος προμηθειών σε έναν γνωστό και μεγάλο Δημόσιο Οργανισμό. Είναι απόλυτα έντιμος και ευσυνείδητος υπάλληλος, συνεπής σε όλα του τα καθήκοντα. Η γυναίκα του Γκέλλυ έχει συμβιβαστεί με τις αρχές του άντρα της αλλά ταυτόχρονα η καθημερινότητά της είναι δύσκολη αφού τα οικονομικά της οικογενείας της πάνε από το κακό στο χειρότερο.. Μία μέρα έρχονται σε επαφή μαζί της οι προϊστάμενοι του άντρας της και την πείθουν να υποδείξει εμμέσως στον Σωτήρη έναν δικό τους προμηθευτή, με το αζημίωτο φυσικά. Η Γκέλλυ τα καταφέρνει και από εκείνη την στιγμή αναλαμβάνει με διάφορα γυναικεία κόλπα να επηρεάζει τον Σωτήρη προκειμένου αυτή να εισπράττει πλούσιες μίζες εν αγνοία του. ΑΝ ΘΕΛΕΤΕ ΝΑ ΣΤΗΡΙΞΕΤΕ ΤΗΝ ΔΟΥΛΕΙΑ ΜΟΥ ΚΑΝΤΕ ΕΥΚΟΛΑ ΚΑΙ ΓΡΗΓΟΡΑ ΛΟΓΑΡΙΑΣΜΟ ΣΤΟ EASYBYTEZ KAI KATEΒΑΣΤΕ ΣΑΝ PREMIUM AΠO 20 HOST!! http://www.easybytez.com/free2771.html [Hidden Content] [Hidden Content] [Hidden Content]
  15. Είδος Ταινίας: Drama Πρεμιέρα: 30 April 2015 (Greece) Σκηνοθέτης: Simon Curtis Σενάριο: Alexi Kaye Campbell, E. Randol Schoenberg (life story) Ηθοποιοί: Helen Mirren, Ryan Reynolds, Daniel BrΓΌhl Υπότιτλοι: Ελληνικοί Ενσωματωμένοι & Σε Ξεχωριστό Αρχείο Ελληνικός Τίτλος: Γυναίκα από Χρυσό Μετάφραση: nicas Διάρκεια: 109' Καταλληλότητα: Υπόθεση: Πενήντα χρόνια μετά την φυγή της από τη Βιέννη, η Μαρία Άλτμαν επιστρέφει στην παλιά της πατρίδα για να ανακτήσει οικογενειακά κειμήλια που εκλάπησαν από τους Ναζί, συμπεριλαμβανομένου και του πίνακα «Woman in Gold» του Κλιμτ. Μαζί με τον άπειρο αλλά θαρραλέο δικηγόρο της, ξεκινά μια μάχη που διαρκεί οχτώ χρόνια και την φέρνει στο ανώτατο δικαστήριο των ΗΠΑ. Στην πορεία, αναγκάζεται να αντιμετωπίζει δύσκολες αλήθειες για το παρελθόν της και θα συνειδητοποιήσει ότι κάποιοι πόλεμοι δεν τελειώνουν ποτέ. Η δικαιοσύνη είναι ανεκτίμητη. Extras: Τον ρόλο του δικηγόρου αρχικά είχε πάρει ο Andrew Garfield, αλλά αποχώρησε. Η ιστορία της Μαρία Άλτμαν (2016-2011) είναι αληθινή. Τα γεγονότα έχουν εκτεθεί και στο ντοκιμαντέρ 55 λεπτών του 2008, Adele`s Wish, όπου εμφανίζονταν η ίδια η Άλτμαν. http://www.imdb.com/title/tt2404425/[/CODE] [IMG=http://imageshack.com/a/img537/5857/pLhHqM.png] [IMG=http://farm2.staticflickr.com/1760/42311648172_6686daf766_o.jpg] [IMG=http://c1.staticflickr.com/1/799/40982563121_97d9e4fb96_o.png] [video=youtube;wu9JeTX6Sdw]http://www.youtube.com/watch?v=wu9JeTX6Sdw[/video] [FONT=verdana][B]TEXNIKA XAΡΑΚΤΗΡΙΣΤΙΚΑ [/B][/FONT] [SPOILER] [CODE] General Unique ID : 246474802797901415605426459357412584170 (0xB96D5200CA06CAD989E0D093976BEAEA) Complete name : C:\Users\Administrator\Downloads\womaningold1080brsexmeup\Woman.in.Gold.2015.1080p.BluRay.x264-GECKOS.mkv Format : Matroska Format version : Version 4 / Version 2 File size : 7.64 GiB Duration : 1 h 49 min Overall bit rate : 10.0 Mb/s Encoded date : UTC 2015-06-19 22:24:09 Writing application : mkvmerge v6.2.0 ('Promised Land') built on Apr 28 2013 12:22:01 Writing library : libebml v1.3.0 + libmatroska v1.4.0 Video ID : 1 Format : AVC Format/Info : Advanced Video Codec Format profile : [email protected] Format settings : CABAC / 5 Ref Frames Format settings, CABAC : Yes Format settings, RefFrames : 5 frames Codec ID : V_MPEG4/ISO/AVC Duration : 1 h 49 min Bit rate : 8 508 kb/s Width : 1 920 pixels Height : 808 pixels Display aspect ratio : 2.40:1 Frame rate mode : Constant Frame rate : 23.976 FPS Color space : YUV Chroma subsampling : 4:2:0 Bit depth : 8 bits Scan type : Progressive Bits/(Pixel*Frame) : 0.229 Stream size : 6.33 GiB (83%) Writing library : x264 core 146 r2538 121396c Encoding settings : cabac=1 / ref=5 / deblock=1:0:0 / analyse=0x3:0x133 / me=umh / subme=7 / psy=1 / psy_rd=1.00:0.00 / mixed_ref=1 / me_range=16 / chroma_me=1 / trellis=1 / 8x8dct=1 / cqm=0 / deadzone=21,11 / fast_pskip=0 / chroma_qp_offset=-2 / threads=60 / lookahead_threads=6 / sliced_threads=0 / nr=0 / decimate=1 / interlaced=0 / bluray_compat=0 / constrained_intra=0 / bframes=3 / b_pyramid=2 / b_adapt=1 / b_bias=0 / direct=1 / weightb=1 / open_gop=0 / weightp=2 / keyint=250 / keyint_min=23 / scenecut=40 / intra_refresh=0 / rc_lookahead=40 / rc=2pass / mbtree=1 / bitrate=8508 / ratetol=1.0 / qcomp=0.60 / qpmin=0 / qpmax=69 / qpstep=4 / cplxblur=20.0 / qblur=0.5 / ip_ratio=1.40 / aq=1:1.00 Language : English Default : Yes Forced : No Audio ID : 2 Format : DTS Format/Info : Digital Theater Systems Codec ID : A_DTS Duration : 1 h 49 min Bit rate mode : Constant Bit rate : 1 509 kb/s Channel(s) : 6 channels Channel positions : Front: L C R, Side: L R, LFE Sampling rate : 48.0 kHz Frame rate : 93.750 FPS (512 SPF) Bit depth : 24 bits Compression mode : Lossy Stream size : 1.15 GiB (15%) Language : English Default : Yes Forced : No Text ID : 3 Format : UTF-8 Codec ID : S_TEXT/UTF8 Codec ID/Info : UTF-8 Plain Text Title : English-Forced Language : English Default : Yes Forced : Yes [/CODE] [/SPOILER] [CENTER] [IMG=http://c1.staticflickr.com/1/791/39173997270_2f2136d533_o.png] [IMG=http://c1.staticflickr.com/1/789/39174288770_254a09d05d_o.png] [FONT=verdana][SIZE=3][B]ΑΝ ΘΕΛΕΤΕ ΝΑ ΣΤΗΡΙΞΕΤΕ ΤΗΝ ΔΟΥΛΕΙΑ ΜΟΥ [B]ΚΑΝΤΕ ΕΥΚΟΛΑ ΚΑΙ ΓΡΗΓΟΡΑ ΛΟΓΑΡΙΑΣΜΟ ΣΤΟ[/B][/B][/SIZE][COLOR=#837E6E][SIZE=3][B][B] [COLOR=#ff0000]EASYBYTEZ[/COLOR] [/B][/B][/SIZE][/COLOR][SIZE=3][B][B]KAI KATEΒΑΣΤΕ ΣΑΝ PREMIUM AΠO [COLOR=#ff0000]20 [/COLOR]HOST!![/B][/B][/SIZE] [COLOR=#837E6E][SIZE=3][B][B][B][URL="http://www.easybytez.com/free2771.html"][COLOR=#ff0000]http://www.easybytez.com/free2771.html[/COLOR][/URL][/B][/B][/B][/SIZE][/COLOR][/FONT] [LEFT][Hidden Content] [/LEFT] [IMG=http://c1.staticflickr.com/1/812/26112042877_04292fbd5e_o.png] [LEFT][Hidden Content][CENTER][Hidden Content] [/COLOR][/COLOR][IMG=http://c1.staticflickr.com/5/4786/40089466905_8e4a5d3f42_o.png][COLOR=#ff0000][COLOR=#222222] [/COLOR][/COLOR] [/CENTER] [/CENTER]
×