Μετάβαση στο περιεχόμενο

ThemusicMan

M.Uploaders
  • Περιεχόμενα

    722
  • Εντάχθηκε

  • Τελευταία επίσκεψη

Φήμη στην κοινότητα

29 Excellent

Σχετικά ThemusicMan

  • Κατάταξη:
    Θ'ΑΝΕΒΩ ΣΕ ΜΙΑ ΜΠΑΝΑΝΙΑ...

Profile Information

  • Country
    Zimbabwe
  • Gender
    Male
  • Location
    ΜΠΑΝΑΝΙΕΣ
  • Gender
    Male
  • Gender
    Male

Contact Methods

  • Website URL
    http://
  • ICQ
    0
  1. This post cannot be displayed because it is in a password protected forum. Enter Password
  2. This post cannot be displayed because it is in a password protected forum. Enter Password
  3. This post cannot be displayed because it is in a password protected forum. Enter Password
  4. Firstanalquest.com Username and pass [Hidden Content]
  5. ΤΡΙΑΔΑ Σπορτινγκ Χιχόν-Τενερίφη:Ασσος (1.55) Ουντινέζε-Σασουόλο:Οβερ2.5 ( 1.65) Αλτάχ-Γκρέντιγκ:Ασσος (1.80)
  6. This post cannot be displayed because it is in a password protected forum. Enter Password
  7. The Rewrite 2014 BRRip XviD-eXceSs iMDB iNFO : Quote: Select all Rating.......: 6.1 Genres.......: Comedy / Romance Language.....: English Director.....: Marc Lawrence Cast.........: J.K. Simmons / Marisa Tomei / Allison Janney / Hugh Grant / Chris Elliott / Aja Naomi King / Bella Heathcote / Maggie Geha / Olivia Luccardi / Caroline Aaron / Annie Q. / Vanessa Wasche / Andrew Keenan-Bolger / Jason Antoon / Nicole Patrick Plot.........: An Oscar-winning writer in a slump leaves Hollywood to teach screenwriting at a college on the East Coast, where he falls for a single mom taking classes there. http://www.imdb.com/title/tt2509850/ TECH iNFO : Format..........: avi File Size.......: 797.85 MiB Duration........: 01:47:00 Bitrate.........: 1043 kb/s Audio...........: mp3, 48000 Hz, stereo, 128 kb/s Video...........: 720x304, 23.98 fps® DownLoad EasyBytez: [Hidden Content]
  8. Sundays And Cybele 1962 iNTERNAL BDRip x264-LiBRARiANS Release Name: Sundays.And.Cybele.iNTERNAL.BDRip.x264-LiBRARiANS Size: 1.16 GB Video: MKV | 720×306 | 1497 Kbps Audio: French | AAC Runtime: 1H 41MiN Subtitles: English http://www.imdb.com/title/tt0055910/ Genre: Drama IMDB Rating: 8.0/10 from 1,513 users Directed by: Serge Bourguignon Starring: Hardy Krüger, Nicole Courcel, Patricia Gozzi After killing a child on a routine bombing mission in Vietnam, Pierre suffers from delayed stress and partial amnesia. Returning to France, he lives like a vegetable until he meets a young girl who has been dumped by her father at a boarding school. Posing as her father, Pierre contrives to meet the girl every Sunday, to play with her and perhaps recover his memory. The innocent friendship is misread by nearly everyone, even people who know Pierre well. A classic of old French art films. Download EasyBytez: [Hidden Content]
  9. Add:English Audio Ratings: 3.8/10 from 34,316 users Metascore: 47/100 Reviews: 303 user | 158 critic | 41 from Metacritic.com http://www.imdb.com/title/tt2322441/ GENRE: Drama | Romance - 13 February 2015 (USA) PLOT: A young English boy befriends a talking bear he finds at a London train station. A live-action feature based on the series of popular children's books by Michael Bond. CAST: Director: Paul King Writers: Paul King, Hamish McColl (screen story), 2 more credits » Stars: Hugh Bonneville, Sally Hawkins, Julie Walters | RELEASE INFO: General SOURCE : .uniongang.tv....TY Complete name : Fifty Shades of Grey 2015 CAM XviD AC3 MURD3R.avi Format : AVI Format/Info : Audio Video Interleave File size : 1.22 GiB Duration : 1h 57mn Overall bit rate : 1 483 Kbps Video ID : 0 Format : MPEG-4 Visual Format profile : Advanced [email protected] Format settings, BVOP : 3 Format settings, QPel : No Format settings, GMC : No warppoints Format settings, Matrix : Custom Codec ID : XVID Codec ID/Hint : XviD Duration : 1h 57mn Bit rate : 1 407 Kbps Width : 720 pixels Height : 256 pixels Display aspect ratio : 2.813 Frame rate : 29.970 fps Color space : YUV Chroma subsampling : 4:2:0 Bit depth : 8 bits Scan type : Progressive Compression mode : Lossy Bits/(Pixel*Frame) : 0.255 Stream size : 1.16 GiB (95%) Writing library : XviD Audio ID : 1 Format : AC-3 Format/Info : Audio Coding 3 Mode extension : CM (complete main) Format settings, Endianness : Big Codec ID : 2000 Duration : 1h 57mn Bit rate mode : Constant Bit rate : 64.0 Kbps Channel(s) : 2 channels Channel positions : Front: L R Sampling rate : 48.0 KHz Bit depth : 16 bits Compression mode : Lossy Stream size : 53.9 MiB (4%) Alignment : Aligned on interleaves Interleave, duration : 32 ms (0.96 video frame) Download EasyBytez Russian Audio: [Hidden Content] English Audio: [Hidden Content]
  10. This post cannot be displayed because it is in a password protected forum. Enter Password
  11. The Disappearance of Eleanor Rigby 2014 [ IMDB - iNFO ] [ Rating ]....... 6.7 [ Genres ]....... Drama [ Language ].... English [ Director ].....Ned Benson IDMB [ Cast ] James McAvoy / Jessica Chastain / Nina Arianda / Viola Davis / Bill Hader / Ciarán Hinds / Isabelle Huppert / William Hurt / Jess Weixler / Nikki M. James / Jeremy Shamos / Wyatt Ralff / Brendan Donaldson / Daron Stewart / June Miller [ Plot ] One couple's story as they try to reclaim the life and love they once knew and pick up the pieces of a past that may be too far gone. [ TECH - iNFO ] [ Release Name ].... The.Disappearance.of.Eleanor.Rigby.2014.LIMITED.BRRip.XviD.MP3-RARBG [ Format ].......... avi [ File Size ]....... 1.02 GiB [ Duration ]........ 02:02:52 [ Bitrate ].........1192 kb/s [ Audio ]........... mp3, 48000 Hz, stereo, 192 kb/s [ Video ]...........720x302, 23.98 fps® Download:EasyBytez.com [Hidden Content]
  12. This post cannot be displayed because it is in a password protected forum. Enter Password
  13. This post cannot be displayed because it is in a password protected forum. Enter Password
  14. ΛΑΤΣΙΟ - ΝΑΠΟΛΙ X 3.35 ΣΠΟΡΤΙΝΓΚ ΧΙΧΟΝ - ΜΠΕΤΙΣ X 3.10
×