Μετάβαση στο περιεχόμενο

Αναζήτηση στην κοινότητα

Εμφάνιση αποτελεσμάτων για τις ετικέτες 'adventure'.

  • Αναζήτηση με βάση τις ετικέτες

    Πληκτρολογήστε τις ετικέτες και χωρίστε τες με κόμμα.
  • Αναζήτηση με βάση τον συγγραφέα

Τύπος περιεχομένου


Ενότητες

  • ELLINOMANIA
    • Ανακοινώσεις - Announcements
    • Κανονισμοί - Rules
    • Τεχνική Υποστήριξη - Help Section
    • Ψηφοφορίες
    • Βοηθήματα προς τα μέλη
    • Ellinomania Διαγωνισμοί
    • Προτάσεις/Παράπονα
  • Το στέκι μας - Our chat place
    • Ellinomania Café
    • Χώρος Υποδοχής - Reception Place
    • Αθλητισμός - Sports Chat
    • Η/Y, internet
    • Το στέκι των φοιτητών/μαθητών
    • Εορτές - Γενέθλια
    • Νέα και Ειδήσεις από την Ελλάδα και τον Κόσμο
    • Funny Place
    • Η γωνιά του καλλιτέχνη - Artist's Corner
    • Μπουκιά & Συχώριο
    • Το στέκι των ζωοφίλων
    • Προγνωστικά Στοιχήματος
    • Μικρές Αγγελίες - Small Announcements
    • Ο χώρος του μεταφυσικού
  • Greek Music - Direct Download
    • Promo Songs
    • Νέες Ελληνικές Κυκλοφορίες/New Greek Releases 2013 - 2018
    • Νέες Κυκλοφορίες Περιοδικών/Εφημερίδων
    • Ελληνικές Συλλογές/Greek Collections
    • Greek Remixes & DJ Club
    • Δισκογραφίες - discographies
    • Soundtracks
    • Παλαιότερες Ελληνικές Κυκλοφορίες - Older Greek Releases
    • Παραδοσιακά - Greek Traditional Music
    • Παλιά/Σπάνια Λαϊκά & Ρεμπέτικα - Old & Rare
    • Εορταστική μουσική - Music for celebrations
    • Μουσική για Παιδιά - Music For Children
    • Μουσική Σάτυρα
    • Βυζαντινή & Εκκλησιαστική Μουσική
    • Αναζητήσεις - Request
  • Ελληνική Μουσική - Greek Music
  • International Music - Direct Download
    • Ξένα Promos
    • Ξένη Μουσική - Foreign Music
    • Ξένα Mixes / Remixes
    • Ξένες Συλλογές/Foreign Collections
    • Box Sets - Complete Collections
    • Ξένες Δισκογραφίες
    • Ξένα Soundtracks
    • Κλασσική μουσική - Classical music
  • Direct Download - Ταινίες,Σειρές
    • Ελληνικές Ταινίες - Greek Movies
    • Ξένες Ταινίες - Foreign Movies
    • Ταινίες Υψηλής Ευκρίνειας - High Definition Movies
    • Ελληνικές Σειρές - Greek Series
    • Ξένες Σειρές - Foreign Series
    • Ντοκιμαντέρ - Documentaries
    • Κινούμενα σχέδια - Cartoons
    • Αθλητικά γεγονότα - Sport events
    • Trailers
    • Αναζήτηση ταινιών
  • Ταινίες - Movies
  • Direct Download - Προγράμματα
    • Προγράμματα
    • Αναζήτηση προγραμμάτων
  • Παιχνίδια - Games
  • Direct Download - Παιχνίδια
    • Παιχνίδια
    • Games Trailers
    • Αναζήτηση Παιχνιδιών
  • Direct Download - Διάφορα
    • Video Clips και Συναυλίες
    • Μουσικά DVD και TV Show
    • Διάφορα Videos
    • Video Tutorials
    • E-Books
    • Κινητή τηλεφωνία
  • Golden/Silver Members Area
    • Golden Member Music Paradise Area - Ελληνικές Κυκλοφορίες CD σε υψηλή ποιότητα
    • Φιλμογραφίες - Συλλογές γνωστών ηθοποιών
    • Τρισδιάστατες Ταινίες - 3D Movies
    • Hacks and Tools
    • Compact Disc Club
    • Delta Club
    • Café del Mar
    • Αdult Zone
    • Ειδική Αναζήτηση / Ειδικό Request για ληγμένους συνδέσμους
    • Συζήτηση Golden/Silver μελών
  • Dead Links
    • Dead Links
  • Ellinomania Team
    • Ellinomania Team
  • Trashcan
    • Trashcan
  • Παλαιότερες Ξένες Σειρές
  • Εγγραφή Εδώ - Register Here
  • CLICK HERE TO RESEND VALIDATION EMAIL
  • ΔΕΝ ΜΠΟΡΩ ΝΑ ΕΝΕΡΓΟΠΟΙΗΣΩ ΤΟ ACCOUNT ΜΟΥ
  • Δοκιμαστικό Forum Για Uploaders - Μόνο Ταινίες
  • Δοκιμαστικό Forum Για Uploaders - Μόνο Ξένα CD's
  • Δοκιμαστικό Forum Για Uploaders - Μόνο Eλληνικά CD's
  • Δοκιμαστικό Forum Για Uploaders - Μόνο PC Games
  • Δοκιμαστικό Forum Για Uploaders - Μόνο Προγράμματα
  • Δοκιμαστικό Forum Για Uploaders - Μόνο Βιβλία/περιοδικά

Ημερολόγια

  • Community Calendar

Found 873 results

  1. Είδος Ταινίας: Adventure, Comedy Πρεμιέρα: 26 October 2012 (USA) Σκηνοθέτης: Josh Schwartz Σενάριο: Max Werner Ηθοποιοί: Victoria Justice, Johnny Knoxville, Chelsea Handler Υπότιτλοι: Ελληνικοί Ενσωματωμένοι & Σε Ξεχωριστό Αρχείο Μετάφραση: Άγνωστος Διάρκεια: 86' Καταλληλότητα: Υπόθεση: Η Ρεν προσκαλείται στο Halloween πάρτι του Άαρον, του αγοριού που πεθαίνει να κάνει σχέση. Η μητέρα της, όμως, την υποχρεώνει να κάνει την παραδοσιακή γύρα από τα σπίτια, παρέα με τον αλλόκοτο μικρό αδελφό της, Άλμπερτ. Η Ρεν, βέβαια, δεν μπορεί να χάσει το πάρτι και παίρνει αναγκαστικά μαζί και τον μικρό. Όμως, ο μικρός έχει εξαφανιστεί και η Ρεν πρέπει να τον βρει πριν το μάθει η μητέρα της και είναι πλέον αργά. Κάποιοι τύποι απλά δεν τα καταφέρνουν με το Χάλογουιν. http://www.imdb.com/title/tt1663143/[/CODE] [IMG=http://c1.staticflickr.com/5/4780/40089464785_599858f97a_o.png] [IMG=http://farm1.staticflickr.com/970/27450104377_18315d9b7b_o.jpg] [IMG=http://c1.staticflickr.com/1/799/40982563121_97d9e4fb96_o.png] [video=youtube;4zIO73K9d1A]http://www.youtube.com/watch?v=4zIO73K9d1A[/video] [FONT=verdana][B]TEXNIKA XAΡΑΚΤΗΡΙΣΤΙΚΑ [/B][/FONT] [SPOILER] [CODE] General Complete name : C:\Users\Administrator\Downloads\funsize1080brsexmeup\Fun.Size.2012.1080p.BluRay.x264-SPARKS.mkv Format : Matroska Format version : Version 2 File size : 6.55 GiB Duration : 1 h 26 min Overall bit rate : 10.9 Mb/s Writing application : mkvmerge v4.1.1 ('Bouncin' Back') built on Jul 3 2010 22:54:08 Writing library : libebml v1.0.0 + libmatroska v1.0 Video ID : 1 Format : AVC Format/Info : Advanced Video Codec Format profile : [email protected] Format settings : CABAC / 5 Ref Frames Format settings, CABAC : Yes Format settings, RefFrames : 5 frames Codec ID : V_MPEG4/ISO/AVC Duration : 1 h 26 min Bit rate : 9 354 kb/s Width : 1 920 pixels Height : 816 pixels Display aspect ratio : 2.35:1 Frame rate mode : Constant Frame rate : 23.976 (24000/1001) FPS Color space : YUV Chroma subsampling : 4:2:0 Bit depth : 8 bits Scan type : Progressive Bits/(Pixel*Frame) : 0.249 Stream size : 5.51 GiB (84%) Writing library : x264 core 129 r2245 bc13772 Encoding settings : cabac=1 / ref=5 / deblock=1:0:0 / analyse=0x3:0x133 / me=umh / subme=7 / psy=1 / psy_rd=1.00:0.00 / mixed_ref=1 / me_range=16 / chroma_me=1 / trellis=1 / 8x8dct=1 / cqm=0 / deadzone=21,11 / fast_pskip=0 / chroma_qp_offset=-2 / threads=12 / lookahead_threads=2 / sliced_threads=0 / nr=0 / decimate=1 / interlaced=0 / bluray_compat=0 / constrained_intra=0 / bframes=3 / b_pyramid=2 / b_adapt=1 / b_bias=0 / direct=1 / weightb=1 / open_gop=0 / weightp=2 / keyint=250 / keyint_min=23 / scenecut=40 / intra_refresh=0 / rc_lookahead=40 / rc=2pass / mbtree=1 / bitrate=9354 / ratetol=1.0 / qcomp=0.60 / qpmin=0 / qpmax=69 / qpstep=4 / cplxblur=20.0 / qblur=0.5 / ip_ratio=1.40 / aq=1:1.00 Language : English Default : Yes Forced : No Audio ID : 2 Format : DTS Format/Info : Digital Theater Systems Codec ID : A_DTS Duration : 1 h 26 min Bit rate mode : Constant Bit rate : 1 509 kb/s Channel(s) : 6 channels Channel positions : Front: L C R, Side: L R, LFE Sampling rate : 48.0 kHz Frame rate : 93.750 FPS (512 SPF) Bit depth : 24 bits Compression mode : Lossy Stream size : 932 MiB (14%) Title : DTS Language : English Default : Yes Forced : No Text #1 ID : 3 Format : UTF-8 Codec ID : S_TEXT/UTF8 Codec ID/Info : UTF-8 Plain Text Title : English Forced Language : English Default : Yes Forced : No Text #2 ID : 4 Format : UTF-8 Codec ID : S_TEXT/UTF8 Codec ID/Info : UTF-8 Plain Text Title : English Language : English Default : No Forced : No Text #3 ID : 5 Format : UTF-8 Codec ID : S_TEXT/UTF8 Codec ID/Info : UTF-8 Plain Text Title : English SDH Language : English Default : No Forced : No [/CODE] [/SPOILER] [IMG=http://c1.staticflickr.com/1/791/39173997270_2f2136d533_o.png] [IMG=http://c1.staticflickr.com/1/789/39174288770_254a09d05d_o.png] [SIZE=3][FONT=verdana][B]ΑΝ ΘΕΛΕΤΕ ΝΑ ΣΤΗΡΙΞΕΤΕ ΤΗΝ ΔΟΥΛΕΙΑ ΜΟΥ ΚΑΝΤΕ ΕΥΚΟΛΑ ΚΑΙ ΓΡΗΓΟΡΑ ΛΟΓΑΡΙΑΣΜΟ ΣΤΟ [COLOR=#ff0000]EASYBYTEZ [/COLOR]KAI KATEΒΑΣΤΕ ΣΑΝ PREMIUM AΠO [COLOR=#ff0000]20 [/COLOR]HOST!! [COLOR=#ff0000]http://www.easybytez.com/free2771.html[/COLOR][/B][/FONT][/SIZE][/CENTER] [Hidden Content] [CENTER][IMG=http://c1.staticflickr.com/1/812/26112042877_04292fbd5e_o.png] [/CENTER] [Hidden Content][CENTER][Hidden Content] [IMG=http://c1.staticflickr.com/5/4786/40089466905_8e4a5d3f42_o.png] [/CENTER]
  2. Είδος Ταινίας: Adventure, Comedy Πρεμιέρα: 26 October 2012 (USA) Σκηνοθέτης: Josh Schwartz Σενάριο: Max Werner Ηθοποιοί: Victoria Justice, Johnny Knoxville, Chelsea Handler Υπότιτλοι: Ελληνικοί Ενσωματωμένοι & Σε Ξεχωριστό Αρχείο Μετάφραση: Άγνωστος Διάρκεια: 86' Καταλληλότητα: - encoder: .:Sexmeup:. Πηγή: 1080p.BluRay.x264-SPARKS Υπόθεση: Η Ρεν προσκαλείται στο Halloween πάρτι του Άαρον, του αγοριού που πεθαίνει να κάνει σχέση. Η μητέρα της, όμως, την υποχρεώνει να κάνει την παραδοσιακή γύρα από τα σπίτια, παρέα με τον αλλόκοτο μικρό αδελφό της, Άλμπερτ. Η Ρεν, βέβαια, δεν μπορεί να χάσει το πάρτι και παίρνει αναγκαστικά μαζί και τον μικρό. Όμως, ο μικρός έχει εξαφανιστεί και η Ρεν πρέπει να τον βρει πριν το μάθει η μητέρα της και είναι πλέον αργά. Κάποιοι τύποι απλά δεν τα καταφέρνουν με το Χάλογουιν. ΑΝ ΘΕΛΕΤΕ ΝΑ ΣΤΗΡΙΞΕΤΕ ΤΗΝ ΔΟΥΛΕΙΑ ΜΟΥ ΚΑΝΤΕ ΕΥΚΟΛΑ ΚΑΙ ΓΡΗΓΟΡΑ ΛΟΓΑΡΙΑΣΜΟ ΣΤΟ EASYBYTEZ KAI KATEΒΑΣΤΕ ΣΑΝ PREMIUM AΠO 20 HOST!! http://www.easybytez.com/free2771.html [Hidden Content] [Hidden Content] [Hidden Content]
  3. Είδος Ταινίας: Adventure, Comedy Πρεμιέρα: 26 October 2012 (USA) Σκηνοθέτης: Josh Schwartz Σενάριο: Max Werner Ηθοποιοί: Victoria Justice, Johnny Knoxville, Chelsea Handler Υπότιτλοι: Ελληνικοί Ενσωματωμένοι & Σε Ξεχωριστό Αρχείο Μετάφραση: Άγνωστος Διάρκεια: 86' Καταλληλότητα: - encoder: .:Sexmeup:. Πηγή: 1080p.BluRay.x264-SPARKS Υπόθεση: Η Ρεν προσκαλείται στο Halloween πάρτι του Άαρον, του αγοριού που πεθαίνει να κάνει σχέση. Η μητέρα της, όμως, την υποχρεώνει να κάνει την παραδοσιακή γύρα από τα σπίτια, παρέα με τον αλλόκοτο μικρό αδελφό της, Άλμπερτ. Η Ρεν, βέβαια, δεν μπορεί να χάσει το πάρτι και παίρνει αναγκαστικά μαζί και τον μικρό. Όμως, ο μικρός έχει εξαφανιστεί και η Ρεν πρέπει να τον βρει πριν το μάθει η μητέρα της και είναι πλέον αργά. Κάποιοι τύποι απλά δεν τα καταφέρνουν με το Χάλογουιν. ΑΝ ΘΕΛΕΤΕ ΝΑ ΣΤΗΡΙΞΕΤΕ ΤΗΝ ΔΟΥΛΕΙΑ ΜΟΥ ΚΑΝΤΕ ΕΥΚΟΛΑ ΚΑΙ ΓΡΗΓΟΡΑ ΛΟΓΑΡΙΑΣΜΟ ΣΤΟ EASYBYTEZ KAI KATEΒΑΣΤΕ ΣΑΝ PREMIUM AΠO 20 HOST!! http://www.easybytez.com/free2771.html [Hidden Content] [Hidden Content] [Hidden Content]
  4. Είδος Ταινίας: Animation, Adventure, Comedy Πρεμιέρα: 30 November 2017 (Greece) Σκηνοθέτης: Paul King Σενάριο: Paul King, Simon Farnaby Ηθοποιοί: Ben Whishaw, Hugh Grant, Hugh Bonneville Υπότιτλοι: Ελληνικοί Ενσωματωμένοι & Σε Ξεχωριστό Αρχείο Ελληνικός Τίτλος: Πάντινγκτον 2 Μετάφραση: ΕλληνικόςΉχος Διάρκεια: 104' Καταλληλότητα: - encoder: .:Sexmeup:. Πηγή: 1080p.GRE.BluRay.x264-HDChina Υπόθεση: Ο αρκούδος Πάντινγκτον έχει πλέον εγκατασταθεί με την οικογένεια Μπράουν, όπου έχει γίνει δημοφιλές μέλος της κοινότητας του Γουίντσορ Γκάρντενς, απλώνοντας παντού χαρά και μαρμελάδα. Καθώς αποζητά το τέλειο δώρο για τα 100 χρόνια της αγαπημένης του θείας Λούσι, ο Πάντινγκτον εντοπίζει ένα μοναδικό παιδικό βιβλίο με εικόνες στην αντικερί του κύριου Γκρούμπερ, ξεκινώντας μια σειρά από περίεργες δουλειές για να καταφέρει να το αγοράσει. Αλλά κάποιος κλέβει το βιβλίο και μόνο ο Παντινγκτον και οι Μπράουν μπορούν να ξεσκεπάσουν τον κλέφτη. Μικρός αρκούδος, μεγάλοι μπελάδες. Extras: Τεχνική: Ψηφιακό Σχέδιο & Ζωντανοί Χαρακτήρες Η Nicole Kidman έδειξε αρχικά ενδιαφέρον, αλλά αποφάσισε να μη συμμετέχει στο σίκουελ. Στα ελληνικά, με τις φωνές των: Γιάννης Τσιμιτσέλης, Χρύσα Διαμαντοπούλου, Φώτης Πετρίδης, Πέτρος Δαμούλης, Στεφανία Φιλιάδη, Κωνσταντής Μαυριάς, Λίλα Μουτσοπούλου, Κώστας Δαρλάσης, Βασίλης Μήλιος. ΑΝ ΘΕΛΕΤΕ ΝΑ ΣΤΗΡΙΞΕΤΕ ΤΗΝ ΔΟΥΛΕΙΑ ΜΟΥ ΚΑΝΤΕ ΕΥΚΟΛΑ ΚΑΙ ΓΡΗΓΟΡΑ ΛΟΓΑΡΙΑΣΜΟ ΣΤΟ EASYBYTEZ KAI KATEΒΑΣΤΕ ΣΑΝ PREMIUM AΠO 20 HOST!! http://www.easybytez.com/free2771.html [Hidden Content] [Hidden Content] [Hidden Content]
  5. Είδος Ταινίας: Animation, Adventure, Comedy Πρεμιέρα: 30 November 2017 (Greece) Σκηνοθέτης: Paul King Σενάριο: Paul King, Simon Farnaby Ηθοποιοί: Ben Whishaw, Hugh Grant, Hugh Bonneville Υπότιτλοι: Ελληνικοί Ενσωματωμένοι & Σε Ξεχωριστό Αρχείο Ελληνικός Τίτλος: Πάντινγκτον 2 Μετάφραση: ΕλληνικόςΉχος Διάρκεια: 104' Καταλληλότητα: - encoder: .:Sexmeup:. Πηγή: 1080p.GRE.BluRay.x264-HDChina Υπόθεση: Ο αρκούδος Πάντινγκτον έχει πλέον εγκατασταθεί με την οικογένεια Μπράουν, όπου έχει γίνει δημοφιλές μέλος της κοινότητας του Γουίντσορ Γκάρντενς, απλώνοντας παντού χαρά και μαρμελάδα. Καθώς αποζητά το τέλειο δώρο για τα 100 χρόνια της αγαπημένης του θείας Λούσι, ο Πάντινγκτον εντοπίζει ένα μοναδικό παιδικό βιβλίο με εικόνες στην αντικερί του κύριου Γκρούμπερ, ξεκινώντας μια σειρά από περίεργες δουλειές για να καταφέρει να το αγοράσει. Αλλά κάποιος κλέβει το βιβλίο και μόνο ο Παντινγκτον και οι Μπράουν μπορούν να ξεσκεπάσουν τον κλέφτη. Μικρός αρκούδος, μεγάλοι μπελάδες. Extras: Τεχνική: Ψηφιακό Σχέδιο & Ζωντανοί Χαρακτήρες Η Nicole Kidman έδειξε αρχικά ενδιαφέρον, αλλά αποφάσισε να μη συμμετέχει στο σίκουελ. Στα ελληνικά, με τις φωνές των: Γιάννης Τσιμιτσέλης, Χρύσα Διαμαντοπούλου, Φώτης Πετρίδης, Πέτρος Δαμούλης, Στεφανία Φιλιάδη, Κωνσταντής Μαυριάς, Λίλα Μουτσοπούλου, Κώστας Δαρλάσης, Βασίλης Μήλιος. ΑΝ ΘΕΛΕΤΕ ΝΑ ΣΤΗΡΙΞΕΤΕ ΤΗΝ ΔΟΥΛΕΙΑ ΜΟΥ ΚΑΝΤΕ ΕΥΚΟΛΑ ΚΑΙ ΓΡΗΓΟΡΑ ΛΟΓΑΡΙΑΣΜΟ ΣΤΟ EASYBYTEZ KAI KATEΒΑΣΤΕ ΣΑΝ PREMIUM AΠO 20 HOST!! http://www.easybytez.com/free2771.html [Hidden Content] [Hidden Content] [Hidden Content]
  6. Είδος Ταινίας: Adventure, Drama Πρεμιέρα: 4 May 2018 (UK) Σκηνοθέτης: Andrew Haigh Σενάριο: Andrew Haigh, Willy Vlautin (novel) Ηθοποιοί: Charlie Plummer, Amy Seimetz, Travis Fimmel Υπότιτλοι: Ελληνικοί Ενσωματωμένοι & Σε Ξεχωριστό Αρχείο Μετάφραση: Calamity Jane Διάρκεια: 121' Καταλληλότητα: - encoder: .:Sexmeup:. Πηγή: 1080p.AMZN.WEB-DL.DDP5.1.H.264-NTG Υπόθεση: Ο 15χρονος Τσάρλι Τόμπσον θέλει ένα σπίτι, φαγητό στο τραπέζι του και ένα σχολείο όπου θα παρακολουθεί για περισσότερο από μόλις ένα διάστημα του χρόνου. Ως γιος εργένη πατέρα που εργάζεται στις αποθήκες της Pacific Northwest, η σταθερότητα είναι ακόμα κι αδύνατη για τη ζωή του. Ελπίζοντας σε ένα καινούργιο ξεκίνημα, μετακομίζουν στο Πόρτλαντ. Εκεί ο Τσάρλι βρίσκει μια δουλειά για το καλοκαίρι στο πλάι ενός εκπαιδευτή αλόγων που κάποτε ζούσε τη δόξα, και γίνεται φίλος με ένα αποτυχημένο άλογο κούρσας που ονομάζεται «Ακούμπα πάνω στον Πιτ». Δεν πας πουθενά από μόνος σου. ΑΝ ΘΕΛΕΤΕ ΝΑ ΣΤΗΡΙΞΕΤΕ ΤΗΝ ΔΟΥΛΕΙΑ ΜΟΥ ΚΑΝΤΕ ΕΥΚΟΛΑ ΚΑΙ ΓΡΗΓΟΡΑ ΛΟΓΑΡΙΑΣΜΟ ΣΤΟ EASYBYTEZ KAI KATEΒΑΣΤΕ ΣΑΝ PREMIUM AΠO 20 HOST!! http://www.easybytez.com/free2771.html [Hidden Content] [Hidden Content] [Hidden Content]
  7. Είδος Ταινίας: Adventure, Drama Πρεμιέρα: 4 May 2018 (UK) Σκηνοθέτης: Andrew Haigh Σενάριο: Andrew Haigh, Willy Vlautin (novel) Ηθοποιοί: Charlie Plummer, Amy Seimetz, Travis Fimmel Υπότιτλοι: Ελληνικοί Ενσωματωμένοι & Σε Ξεχωριστό Αρχείο Μετάφραση: Calamity Jane Διάρκεια: 121' Καταλληλότητα: - encoder: .:Sexmeup:. Πηγή: 1080p.AMZN.WEB-DL.DDP5.1.H.264-NTG Υπόθεση: Ο 15χρονος Τσάρλι Τόμπσον θέλει ένα σπίτι, φαγητό στο τραπέζι του και ένα σχολείο όπου θα παρακολουθεί για περισσότερο από μόλις ένα διάστημα του χρόνου. Ως γιος εργένη πατέρα που εργάζεται στις αποθήκες της Pacific Northwest, η σταθερότητα είναι ακόμα κι αδύνατη για τη ζωή του. Ελπίζοντας σε ένα καινούργιο ξεκίνημα, μετακομίζουν στο Πόρτλαντ. Εκεί ο Τσάρλι βρίσκει μια δουλειά για το καλοκαίρι στο πλάι ενός εκπαιδευτή αλόγων που κάποτε ζούσε τη δόξα, και γίνεται φίλος με ένα αποτυχημένο άλογο κούρσας που ονομάζεται «Ακούμπα πάνω στον Πιτ». Δεν πας πουθενά από μόνος σου. ΑΝ ΘΕΛΕΤΕ ΝΑ ΣΤΗΡΙΞΕΤΕ ΤΗΝ ΔΟΥΛΕΙΑ ΜΟΥ ΚΑΝΤΕ ΕΥΚΟΛΑ ΚΑΙ ΓΡΗΓΟΡΑ ΛΟΓΑΡΙΑΣΜΟ ΣΤΟ EASYBYTEZ KAI KATEΒΑΣΤΕ ΣΑΝ PREMIUM AΠO 20 HOST!! http://www.easybytez.com/free2771.html [Hidden Content] [Hidden Content] [Hidden Content]
  8. Είδος Ταινίας: Adventure, Drama, Fantasy Πρεμιέρα: 23 February 2018 (USA) Σκηνοθέτης: Alex Garland Σενάριο: Alex Garland (written for the screen by), Jeff VanderMeer (based on the novel by) Ηθοποιοί: Natalie Portman, Jennifer Jason Leigh, Tessa Thompson Υπότιτλοι: Ελληνικοί Ενσωματωμένοι & Σε Ξεχωριστό Αρχείο Ελληνικός Τίτλος: Αφανισμός Μετάφραση: Άγνωστος Διάρκεια: 115' Καταλληλότητα: - encoder: .:Sexmeup:. Πηγή: 1080p.BluRay.x264.Atmos.TrueHD7.1-HDChina Υπόθεση: Μια ομάδα τεσσάρων γυναικών (μια βιολόγος, μια ανθρωπολόγος, μια ψυχολόγος και μια τοπογράφος) βρίσκονται σε μια άγνωστη περιοχή, γνωστή ως Περιοχή Χ. Το μέρος είναι εγκαταλελειμμένο και αποκομμένο από τον υπόλοιπο πολιτισμό, ενώ αυτή είναι η δωδέκατη εξερευνητική ομάδα που το επισκέπτεται. Αλλά όλες οι υπόλοιπες έχουν χτυπηθεί από εξαφανίσεις, αυτοκτονίες, επιθετικούς καρκίνους και ψυχικά τραύματα. Φοβού αυτό που είναι μέσα. Extras: Βασισμένο στο πρώτο βιβλίο της τριλογίας Southern Reach. Η Frances McDormand ήταν υποψήφια για τον ρόλο της ψυχολόγου. ΑΝ ΘΕΛΕΤΕ ΝΑ ΣΤΗΡΙΞΕΤΕ ΤΗΝ ΔΟΥΛΕΙΑ ΜΟΥ ΚΑΝΤΕ ΕΥΚΟΛΑ ΚΑΙ ΓΡΗΓΟΡΑ ΛΟΓΑΡΙΑΣΜΟ ΣΤΟ EASYBYTEZ KAI KATEΒΑΣΤΕ ΣΑΝ PREMIUM AΠO 20 HOST!! http://www.easybytez.com/free2771.html [Hidden Content] [Hidden Content] [Hidden Content]
  9. Είδος Ταινίας: Animation, Adventure, Comedy Πρεμιέρα: 1 February 2018 (Greece) Σκηνοθέτης: Nick Park Σενάριο: Mark Burton (screenplay by), James Higginson (screenplay by) Ηθοποιοί: Tom Hiddleston, Maisie Williams, Eddie Redmayne Υπότιτλοι: Ελληνικοί Ενσωματωμένοι & Σε Ξεχωριστό Αρχείο Ελληνικός Τίτλος: Ο άνθρωπος των σπηλαίων Μετάφραση: ΑΚ Διάρκεια: 89' Καταλληλότητα: - encoder: .:Sexmeup:. Πηγή: 1080p.BluRay.x264-DRONES Υπόθεση: Στις αυγές της ανθρωπότητας, όταν προϊστορικά πλάσμα και μαμούθ κατακλύζανε τη Γη, ο τολμηρός άνθρωπος των σπηλαίων Νταγκ, μαζί με το φιλαράκι του τον Χόγκνομπ, ενώνει τη φυλή του ενάντια στους πολέμαρχους της Εποχής του Χαλκού, σε μια μάχη όπου θέλει να τους νικήσει μέσα στο ίδιο τους το παιχνίδι. Κι αυτό δεν είναι άλλο από τον πρώτο ποδοσφαιρικό αγώνα στην ιστορία. Χάλκινη vs. Παλαιολιθική: Δύο εποχές συγκρούονται. Extras: Τεχνική: Stop-motion animation Στα ελληνικά, με τους: Νίκος Αξιώτης, Κώστας Δαρλάσης, Δημήτρης Μακαλιάς, Ηλίας Ζερβός, Έβελυν Ασουάντ, Δαυίδ Μαλτέζε. Σκηνοθεσία: Ηλίας Ζερβός. ΑΝ ΘΕΛΕΤΕ ΝΑ ΣΤΗΡΙΞΕΤΕ ΤΗΝ ΔΟΥΛΕΙΑ ΜΟΥ ΚΑΝΤΕ ΕΥΚΟΛΑ ΚΑΙ ΓΡΗΓΟΡΑ ΛΟΓΑΡΙΑΣΜΟ ΣΤΟ EASYBYTEZ KAI KATEΒΑΣΤΕ ΣΑΝ PREMIUM AΠO 20 HOST!! http://www.easybytez.com/free2771.html [Hidden Content] [Hidden Content] [Hidden Content]
  10. Είδος Ταινίας: Animation, Adventure, Comedy Πρεμιέρα: 1 February 2018 (Greece) Σκηνοθέτης: Nick Park Σενάριο: Mark Burton (screenplay by), James Higginson (screenplay by) Ηθοποιοί: Tom Hiddleston, Maisie Williams, Eddie Redmayne Υπότιτλοι: Ελληνικοί Ενσωματωμένοι & Σε Ξεχωριστό Αρχείο Ελληνικός Τίτλος: Ο άνθρωπος των σπηλαίων Μετάφραση: ΑΚ Διάρκεια: 89' Καταλληλότητα: - encoder: .:Sexmeup:. Πηγή: 1080p.BluRay.x264-DRONES Υπόθεση: Στις αυγές της ανθρωπότητας, όταν προϊστορικά πλάσμα και μαμούθ κατακλύζανε τη Γη, ο τολμηρός άνθρωπος των σπηλαίων Νταγκ, μαζί με το φιλαράκι του τον Χόγκνομπ, ενώνει τη φυλή του ενάντια στους πολέμαρχους της Εποχής του Χαλκού, σε μια μάχη όπου θέλει να τους νικήσει μέσα στο ίδιο τους το παιχνίδι. Κι αυτό δεν είναι άλλο από τον πρώτο ποδοσφαιρικό αγώνα στην ιστορία. Χάλκινη vs. Παλαιολιθική: Δύο εποχές συγκρούονται. Extras: Τεχνική: Stop-motion animation Στα ελληνικά, με τους: Νίκος Αξιώτης, Κώστας Δαρλάσης, Δημήτρης Μακαλιάς, Ηλίας Ζερβός, Έβελυν Ασουάντ, Δαυίδ Μαλτέζε. Σκηνοθεσία: Ηλίας Ζερβός. ΑΝ ΘΕΛΕΤΕ ΝΑ ΣΤΗΡΙΞΕΤΕ ΤΗΝ ΔΟΥΛΕΙΑ ΜΟΥ ΚΑΝΤΕ ΕΥΚΟΛΑ ΚΑΙ ΓΡΗΓΟΡΑ ΛΟΓΑΡΙΑΣΜΟ ΣΤΟ EASYBYTEZ KAI KATEΒΑΣΤΕ ΣΑΝ PREMIUM AΠO 20 HOST!! http://www.easybytez.com/free2771.html [Hidden Content] [Hidden Content] [Hidden Content]
  11. Είδος Ταινίας: Adventure, Drama, Fantasy Πρεμιέρα: 23 February 2018 (USA) Σκηνοθέτης: Alex Garland Σενάριο: Alex Garland (written for the screen by), Jeff VanderMeer (based on the novel by) Ηθοποιοί: Natalie Portman, Jennifer Jason Leigh, Tessa Thompson Υπότιτλοι: Ελληνικοί Ενσωματωμένοι & Σε Ξεχωριστό Αρχείο Ελληνικός Τίτλος: Αφανισμός Μετάφραση: Άγνωστος Διάρκεια: 115' Καταλληλότητα: - encoder: .:Sexmeup:. Πηγή: 720p.BluRay.x264.DD5.1-HDChina Υπόθεση: Μια ομάδα τεσσάρων γυναικών (μια βιολόγος, μια ανθρωπολόγος, μια ψυχολόγος και μια τοπογράφος) βρίσκονται σε μια άγνωστη περιοχή, γνωστή ως Περιοχή Χ. Το μέρος είναι εγκαταλελειμμένο και αποκομμένο από τον υπόλοιπο πολιτισμό, ενώ αυτή είναι η δωδέκατη εξερευνητική ομάδα που το επισκέπτεται. Αλλά όλες οι υπόλοιπες έχουν χτυπηθεί από εξαφανίσεις, αυτοκτονίες, επιθετικούς καρκίνους και ψυχικά τραύματα. Φοβού αυτό που είναι μέσα. Extras: Βασισμένο στο πρώτο βιβλίο της τριλογίας Southern Reach. Η Frances McDormand ήταν υποψήφια για τον ρόλο της ψυχολόγου. http://www.imdb.com/title/tt2798920/[/CODE] [IMG=http://c1.staticflickr.com/5/4780/40089464785_599858f97a_o.png] [IMG=http://farm1.staticflickr.com/966/41250701065_56fd9d2a78_o.jpg] [IMG=http://c1.staticflickr.com/1/799/40982563121_97d9e4fb96_o.png] [video=youtube;89OP78l9oF0]http://www.youtube.com/watch?v=89OP78l9oF0[/video] [FONT=verdana][B]TEXNIKA XAΡΑΚΤΗΡΙΣΤΙΚΑ [/B][/FONT] [SPOILER] [CODE] General Unique ID : 163402314169235675517293185958826149448 (0x7AEE24178832A3B79955992D00CB0648) Complete name : C:\Users\Administrator\Downloads\annihilation720micsexmeup\annihilation720micsexmeup.mkv Format : Matroska Format version : Version 4 / Version 2 File size : 1.95 GiB Duration : 1 h 55 min Overall bit rate : 2 424 kb/s Movie name : .:Sexmeup:. Quality Uploads - encodes - Encoded date : UTC 2018-05-16 22:44:22 Writing application : mkvmerge v23.0.0 ('The Bride Said No') 64-bit Writing library : libebml v1.3.6 + libmatroska v1.4.9 Video ID : 1 Format : AVC Format/Info : Advanced Video Codec Format profile : [email protected] Format settings : CABAC / 4 Ref Frames Format settings, CABAC : Yes Format settings, RefFrames : 4 frames Codec ID : V_MPEG4/ISO/AVC Duration : 1 h 55 min Bit rate : 2 205 kb/s Width : 1 280 pixels Height : 536 pixels Display aspect ratio : 2.40:1 Frame rate mode : Constant Frame rate : 23.976 (24000/1001) FPS Color space : YUV Chroma subsampling : 4:2:0 Bit depth : 8 bits Scan type : Progressive Bits/(Pixel*Frame) : 0.134 Stream size : 1.77 GiB (91%) Writing library : x264 core 148 r2708 86b7198 Encoding settings : cabac=1 / ref=1 / deblock=1:0:0 / analyse=0x1:0x111 / me=hex / subme=2 / psy=1 / psy_rd=1.00:0.00 / mixed_ref=0 / me_range=16 / chroma_me=1 / trellis=0 / 8x8dct=0 / cqm=0 / deadzone=21,11 / fast_pskip=1 / chroma_qp_offset=0 / threads=12 / lookahead_threads=4 / sliced_threads=0 / nr=0 / decimate=1 / interlaced=0 / bluray_compat=0 / constrained_intra=0 / bframes=3 / b_pyramid=2 / b_adapt=1 / b_bias=0 / direct=1 / weightb=1 / open_gop=0 / weightp=1 / keyint=240 / keyint_min=24 / scenecut=40 / intra_refresh=0 / rc_lookahead=10 / rc=abr / mbtree=1 / bitrate=2205 / ratetol=1.0 / qcomp=0.60 / qpmin=0 / qpmax=69 / qpstep=4 / vbv_maxrate=20000 / vbv_bufsize=25000 / nal_hrd=none / filler=0 / ip_ratio=1.40 / aq=1:1.00 Default : Yes Forced : No Color range : Limited Color primaries : BT.709 Transfer characteristics : BT.709 Matrix coefficients : BT.709 Audio ID : 2 Format : AC-3 Format/Info : Audio Coding 3 Codec ID : A_AC3 Duration : 1 h 55 min Bit rate mode : Constant Bit rate : 224 kb/s Channel(s) : 6 channels Channel positions : Front: L C R, Side: L R, LFE Sampling rate : 48.0 kHz Frame rate : 31.250 FPS (1536 SPF) Bit depth : 16 bits Compression mode : Lossy Delay relative to video : -5 ms Stream size : 184 MiB (9%) Title : Surround Language : English Service kind : Complete Main Default : Yes Forced : No Text ID : 3 Format : UTF-8 Codec ID : S_TEXT/UTF8 Codec ID/Info : UTF-8 Plain Text Duration : 1 h 46 min Bit rate : 56 b/s Count of elements : 914 Stream size : 43.9 KiB (0%) Title : Greek Default : Yes Forced : No [/CODE] [/SPOILER] [IMG=http://c1.staticflickr.com/1/791/39173997270_2f2136d533_o.png] [IMG=http://c1.staticflickr.com/1/789/39174288770_254a09d05d_o.png] [SIZE=3][FONT=verdana][B]ΑΝ ΘΕΛΕΤΕ ΝΑ ΣΤΗΡΙΞΕΤΕ ΤΗΝ ΔΟΥΛΕΙΑ ΜΟΥ ΚΑΝΤΕ ΕΥΚΟΛΑ ΚΑΙ ΓΡΗΓΟΡΑ ΛΟΓΑΡΙΑΣΜΟ ΣΤΟ [COLOR=#ff0000]EASYBYTEZ [/COLOR]KAI KATEΒΑΣΤΕ ΣΑΝ PREMIUM AΠO [COLOR=#ff0000]20 [/COLOR]HOST!! [COLOR=#ff0000]http://www.easybytez.com/free2771.html[/COLOR][/B][/FONT][/SIZE][/CENTER] [Hidden Content] [CENTER][IMG=http://c1.staticflickr.com/1/812/26112042877_04292fbd5e_o.png][/CENTER] [Hidden Content][CENTER][Hidden Content] [IMG=http://c1.staticflickr.com/5/4786/40089466905_8e4a5d3f42_o.png][/CENTER]
  12. Είδος Ταινίας: Adventure, Drama, Fantasy Πρεμιέρα: 23 February 2018 (USA) Σκηνοθέτης: Alex Garland Σενάριο: Alex Garland (written for the screen by), Jeff VanderMeer (based on the novel by) Ηθοποιοί: Natalie Portman, Jennifer Jason Leigh, Tessa Thompson Υπότιτλοι: Ελληνικοί Ενσωματωμένοι & Σε Ξεχωριστό Αρχείο Ελληνικός Τίτλος: Αφανισμός Μετάφραση: Άγνωστος Διάρκεια: 115' Καταλληλότητα: - encoder: .:Sexmeup:. Πηγή: 720p.BluRay.x264.DD5.1-HDChina Υπόθεση: Μια ομάδα τεσσάρων γυναικών (μια βιολόγος, μια ανθρωπολόγος, μια ψυχολόγος και μια τοπογράφος) βρίσκονται σε μια άγνωστη περιοχή, γνωστή ως Περιοχή Χ. Το μέρος είναι εγκαταλελειμμένο και αποκομμένο από τον υπόλοιπο πολιτισμό, ενώ αυτή είναι η δωδέκατη εξερευνητική ομάδα που το επισκέπτεται. Αλλά όλες οι υπόλοιπες έχουν χτυπηθεί από εξαφανίσεις, αυτοκτονίες, επιθετικούς καρκίνους και ψυχικά τραύματα. Φοβού αυτό που είναι μέσα. Extras: Βασισμένο στο πρώτο βιβλίο της τριλογίας Southern Reach. Η Frances McDormand ήταν υποψήφια για τον ρόλο της ψυχολόγου. ΑΝ ΘΕΛΕΤΕ ΝΑ ΣΤΗΡΙΞΕΤΕ ΤΗΝ ΔΟΥΛΕΙΑ ΜΟΥ ΚΑΝΤΕ ΕΥΚΟΛΑ ΚΑΙ ΓΡΗΓΟΡΑ ΛΟΓΑΡΙΑΣΜΟ ΣΤΟ EASYBYTEZ KAI KATEΒΑΣΤΕ ΣΑΝ PREMIUM AΠO 20 HOST!! http://www.easybytez.com/free2771.html [Hidden Content] [Hidden Content] [Hidden Content]
  13. Είδος Ταινίας: Action, Adventure, Drama Πρεμιέρα: 25 January 2016 (USA) Σκηνοθέτης: JT Mollner Σενάριο: JT Mollner (original screenplay), JT Mollner Ηθοποιοί: Chad Michael Murray, Francesca Eastwood, Teri Polo Υπότιτλοι: Ελληνικοί Ενσωματωμένοι & Σε Ξεχωριστό Αρχείο Μετάφραση: oberOn Διάρκεια: 120' Καταλληλότητα: - encoder: .:Sexmeup:. Πηγή: 1080p.BluRay.x264-PFa Υπόθεση: Όταν ο Χένρι, ένας παράνομος, οδηγεί τη συμμορία του από δολοφόνους και παρανόμους σε μια ληστεία τράπεζας με μεγάλο ρίσκο, περιμένει όλοι να αποκτήσουν οικονομική ελευθερία και μια ευκαιρία να ζήσουν νότια των συνόρων του Μεξικό. Δυστυχώς, τα πράγματα εξελίσσονται αιματηρά, και αναγκάζονται να σκοτώσουν τον ομοσπονδιακό σερίφη. Με έναν από τους μεγαλύτερους κυνηγούς επικηρυγμένων όλων των εποχών στο κατόπι τους, οδεύουν νότια, μέσα από επικίνδυνα εδάφη. Μισοπεθαμένοι και χωρίς άλογα, τροφή ή νερό, καταλήγουν σε ένα απομονωμένο μεθοριακό σπίτι, στο οποίο ζει ο Τζορτζ Τίλντον, η σύζυγος και οι δύο τους κόρες. Χωρίς άλλη επιλογή, η συμμορία τρυπώνει για να βγάλει τη νύχτα, πριν προσπαθήσουν να περάσουν τα σύνορα. Αλλά μια σειρά φρικιαστικών γεγονότων θα ακολουθήσει. ΑΝ ΘΕΛΕΤΕ ΝΑ ΣΤΗΡΙΞΕΤΕ ΤΗΝ ΔΟΥΛΕΙΑ ΜΟΥ ΚΑΝΤΕ ΕΥΚΟΛΑ ΚΑΙ ΓΡΗΓΟΡΑ ΛΟΓΑΡΙΑΣΜΟ ΣΤΟ EASYBYTEZ KAI KATEΒΑΣΤΕ ΣΑΝ PREMIUM AΠO 20 HOST!! http://www.easybytez.com/free2771.html [Hidden Content] [Hidden Content] [Hidden Content]
  14. Είδος Ταινίας: Action, Adventure, Drama Πρεμιέρα: 25 January 2016 (USA) Σκηνοθέτης: JT Mollner Σενάριο: JT Mollner (original screenplay), JT Mollner Ηθοποιοί: Chad Michael Murray, Francesca Eastwood, Teri Polo Υπότιτλοι: Ελληνικοί Ενσωματωμένοι & Σε Ξεχωριστό Αρχείο Μετάφραση: oberOn Διάρκεια: 120' Καταλληλότητα: - encoder: .:Sexmeup:. Πηγή: 1080p.BluRay.x264-PFa Υπόθεση: Όταν ο Χένρι, ένας παράνομος, οδηγεί τη συμμορία του από δολοφόνους και παρανόμους σε μια ληστεία τράπεζας με μεγάλο ρίσκο, περιμένει όλοι να αποκτήσουν οικονομική ελευθερία και μια ευκαιρία να ζήσουν νότια των συνόρων του Μεξικό. Δυστυχώς, τα πράγματα εξελίσσονται αιματηρά, και αναγκάζονται να σκοτώσουν τον ομοσπονδιακό σερίφη. Με έναν από τους μεγαλύτερους κυνηγούς επικηρυγμένων όλων των εποχών στο κατόπι τους, οδεύουν νότια, μέσα από επικίνδυνα εδάφη. Μισοπεθαμένοι και χωρίς άλογα, τροφή ή νερό, καταλήγουν σε ένα απομονωμένο μεθοριακό σπίτι, στο οποίο ζει ο Τζορτζ Τίλντον, η σύζυγος και οι δύο τους κόρες. Χωρίς άλλη επιλογή, η συμμορία τρυπώνει για να βγάλει τη νύχτα, πριν προσπαθήσουν να περάσουν τα σύνορα. Αλλά μια σειρά φρικιαστικών γεγονότων θα ακολουθήσει. ΑΝ ΘΕΛΕΤΕ ΝΑ ΣΤΗΡΙΞΕΤΕ ΤΗΝ ΔΟΥΛΕΙΑ ΜΟΥ ΚΑΝΤΕ ΕΥΚΟΛΑ ΚΑΙ ΓΡΗΓΟΡΑ ΛΟΓΑΡΙΑΣΜΟ ΣΤΟ EASYBYTEZ KAI KATEΒΑΣΤΕ ΣΑΝ PREMIUM AΠO 20 HOST!! http://www.easybytez.com/free2771.html [Hidden Content] [Hidden Content] [Hidden Content]
  15. Είδος Ταινίας: Action, Adventure, Romance Πρεμιέρα: 11 April 2013 (Greece) Σκηνοθέτης: Andrew Niccol Σενάριο: Andrew Niccol (screenplay), Stephenie Meyer (novel) Ηθοποιοί: Saoirse Ronan, Max Irons, Jake Abel Υπότιτλοι: Ελληνικοί Ενσωματωμένοι & Σε Ξεχωριστό Αρχείο Ελληνικός Τίτλος: Το σώμα Μετάφραση: Ευχούλα Διάρκεια: 125' Καταλληλότητα: - encoder: .:Sexmeup:. Πηγή: 1080p.BluRay.x264-SPARKS Υπόθεση: Εξωγήινες οντότητες που χρησιμοποιούν άλλα είδη ως ξενιστές, έχουν φτάσει στην Γη κι έχουν υποτάξει το μεγαλύτερο μέρος της ανθρωπότητας. Καταλαμβάνουν την ψυχή των ανθρώπων, αφήνοντας το σώμα τους άθικτο. Ελάχιστοι είναι οι άνθρωποι που έχουν παραμείνει "ελεύθεροι", οι αποκαλούμενοι επαναστάστες. Μια τέτοια είναι και η Μέλανι Στράιντερ, η οποία ξέφυγε αρχικά τον κίνδυνο, γνώρισε τον έρωτα της ζωής της Τζάρεντ και στη συνέχεια έπεσε θύμα των Ψυχών. Δεν παρέδωσε όμως το πνεύμα της, καθώς μια μάχη εξελίσσεται μέσα της, ανάμεσα στην ίδια και στην Ψυχή που την κατέλαβε, για την επικράτηση του σώματός της. Ο κόσμος δεν ήταν ποτέ τελειότερος. Δεν είναι πια ο κόσμος Σας. Extras: Το βιβλίο «ΤΟ ΣΩΜΑ» κυκλοφορεί από τις Εκδόσεις Πλατύπους. ΑΝ ΘΕΛΕΤΕ ΝΑ ΣΤΗΡΙΞΕΤΕ ΤΗΝ ΔΟΥΛΕΙΑ ΜΟΥ ΚΑΝΤΕ ΕΥΚΟΛΑ ΚΑΙ ΓΡΗΓΟΡΑ ΛΟΓΑΡΙΑΣΜΟ ΣΤΟ EASYBYTEZ KAI KATEΒΑΣΤΕ ΣΑΝ PREMIUM AΠO 20 HOST!! http://www.easybytez.com/free2771.html [Hidden Content] [Hidden Content] [Hidden Content]
  16. Είδος Ταινίας: Action, Adventure, Romance Πρεμιέρα: 11 April 2013 (Greece) Σκηνοθέτης: Andrew Niccol Σενάριο: Andrew Niccol (screenplay), Stephenie Meyer (novel) Ηθοποιοί: Saoirse Ronan, Max Irons, Jake Abel Υπότιτλοι: Ελληνικοί Ενσωματωμένοι & Σε Ξεχωριστό Αρχείο Ελληνικός Τίτλος: Το σώμα Μετάφραση: Ευχούλα Διάρκεια: 125' Καταλληλότητα: - encoder: .:Sexmeup:. Πηγή: 1080p.BluRay.x264-SPARKS Υπόθεση: Εξωγήινες οντότητες που χρησιμοποιούν άλλα είδη ως ξενιστές, έχουν φτάσει στην Γη κι έχουν υποτάξει το μεγαλύτερο μέρος της ανθρωπότητας. Καταλαμβάνουν την ψυχή των ανθρώπων, αφήνοντας το σώμα τους άθικτο. Ελάχιστοι είναι οι άνθρωποι που έχουν παραμείνει "ελεύθεροι", οι αποκαλούμενοι επαναστάστες. Μια τέτοια είναι και η Μέλανι Στράιντερ, η οποία ξέφυγε αρχικά τον κίνδυνο, γνώρισε τον έρωτα της ζωής της Τζάρεντ και στη συνέχεια έπεσε θύμα των Ψυχών. Δεν παρέδωσε όμως το πνεύμα της, καθώς μια μάχη εξελίσσεται μέσα της, ανάμεσα στην ίδια και στην Ψυχή που την κατέλαβε, για την επικράτηση του σώματός της. Ο κόσμος δεν ήταν ποτέ τελειότερος. Δεν είναι πια ο κόσμος Σας. Extras: Το βιβλίο «ΤΟ ΣΩΜΑ» κυκλοφορεί από τις Εκδόσεις Πλατύπους. ΑΝ ΘΕΛΕΤΕ ΝΑ ΣΤΗΡΙΞΕΤΕ ΤΗΝ ΔΟΥΛΕΙΑ ΜΟΥ ΚΑΝΤΕ ΕΥΚΟΛΑ ΚΑΙ ΓΡΗΓΟΡΑ ΛΟΓΑΡΙΑΣΜΟ ΣΤΟ EASYBYTEZ KAI KATEΒΑΣΤΕ ΣΑΝ PREMIUM AΠO 20 HOST!! http://www.easybytez.com/free2771.html [Hidden Content] [Hidden Content] [Hidden Content]
  17. Είδος Ταινίας: Adventure, Fantasy, Romance Πρεμιέρα: 3 December 2015 (Russia) Σκηνοθέτης: Indar Dzhendubaev Σενάριο: Aleksey Arsenev, Marina Dyachenko Ηθοποιοί: Matvey Lykov, Mariya Poezzhaeva, Stanislav Lyubshin Υπότιτλοι: Ελληνικοί Ενσωματωμένοι & Σε Ξεχωριστό Αρχείο Μετάφραση: MedievalGuy Διάρκεια: 110' Καταλληλότητα: - encoder: .:Sexmeup:. Πηγή: 1080p.BluRay.x264-MOViEiT Υπόθεση: Στη μέση της γαμήλιας τελετής, η πριγκίπισσας Miroslava απάγεται από δράκο και μεταφέρεται στο κάστρο του σε ένα απομακρυσμένο νησί. Η Mira έχει χάσει τα πάντα. Οικογένεια, φίλους και τον άντρα που επρόκειτο να παντρευτεί. Τώρα τα μόνα που είχε είναι ένα πέτρινο κλουβί και τη συντροφιά ενός μυστηριώδους νεαρού άντρας που ονομάζεται Arman ... αλλά ποιος είναι αυτός και τι κάνει σε αυτό το νησί; Η Mira θα γνωρίσει την αλήθεια πολύ αργά. Η αγάπη ενός δράκου θα αποκαλύψει την πικρή αλήθεια, Μερικές φορές η αγάπη είναι τρομακτική. ΑΝ ΘΕΛΕΤΕ ΝΑ ΣΤΗΡΙΞΕΤΕ ΤΗΝ ΔΟΥΛΕΙΑ ΜΟΥ ΚΑΝΤΕ ΕΥΚΟΛΑ ΚΑΙ ΓΡΗΓΟΡΑ ΛΟΓΑΡΙΑΣΜΟ ΣΤΟ EASYBYTEZ KAI KATEΒΑΣΤΕ ΣΑΝ PREMIUM AΠO 20 HOST!! http://www.easybytez.com/free2771.html [Hidden Content] [Hidden Content] [Hidden Content]
  18. Είδος Ταινίας: Adventure, Fantasy, Romance Πρεμιέρα: 3 December 2015 (Russia) Σκηνοθέτης: Indar Dzhendubaev Σενάριο: Aleksey Arsenev, Marina Dyachenko Ηθοποιοί: Matvey Lykov, Mariya Poezzhaeva, Stanislav Lyubshin Υπότιτλοι: Ελληνικοί Ενσωματωμένοι & Σε Ξεχωριστό Αρχείο Μετάφραση: MedievalGuy Διάρκεια: 110' Καταλληλότητα: - encoder: .:Sexmeup:. Πηγή: 1080p.BluRay.x264-MOViEiT Υπόθεση: Στη μέση της γαμήλιας τελετής, η πριγκίπισσας Miroslava απάγεται από δράκο και μεταφέρεται στο κάστρο του σε ένα απομακρυσμένο νησί. Η Mira έχει χάσει τα πάντα. Οικογένεια, φίλους και τον άντρα που επρόκειτο να παντρευτεί. Τώρα τα μόνα που είχε είναι ένα πέτρινο κλουβί και τη συντροφιά ενός μυστηριώδους νεαρού άντρας που ονομάζεται Arman ... αλλά ποιος είναι αυτός και τι κάνει σε αυτό το νησί; Η Mira θα γνωρίσει την αλήθεια πολύ αργά. Η αγάπη ενός δράκου θα αποκαλύψει την πικρή αλήθεια, Μερικές φορές η αγάπη είναι τρομακτική. ΑΝ ΘΕΛΕΤΕ ΝΑ ΣΤΗΡΙΞΕΤΕ ΤΗΝ ΔΟΥΛΕΙΑ ΜΟΥ ΚΑΝΤΕ ΕΥΚΟΛΑ ΚΑΙ ΓΡΗΓΟΡΑ ΛΟΓΑΡΙΑΣΜΟ ΣΤΟ EASYBYTEZ KAI KATEΒΑΣΤΕ ΣΑΝ PREMIUM AΠO 20 HOST!! http://www.easybytez.com/free2771.html [Hidden Content] [Hidden Content] [Hidden Content]
  19. Full Release Name: THE 101-YEAR-OLD MAN WHO SKIPPED OUT ON THE BILL AND DISAPPEARED (2016) BluRay 1080p 5.1 CH Sexmeup 2.5 GB Είδος Ταινίας: Adventure, Comedy, Crime Πρεμιέρα: 25 December 2016 (Sweden) Σκηνοθέτης: Felix Herngren, Mans Herngren Σενάριο: Hans Ingemansson (script), Felix Herngren (script) Ηθοποιοί: Robert Gustafsson, Iwar Wiklander, David Wiberg Υπότιτλοι: Ελληνικοί Ενσωματωμένοι & Σε Ξεχωριστό Αρχείο Ελληνικός Τίτλος: Ο Εκατοντάχρονος που Δεν Πλήρωσε τον Λογαριασμό και Εξαφανίστηκε Γνωστό και ως: Hundraettaringen som smet fran notan och forsvann Μετάφραση: Σωτάκη Κωνσταντίνα Διάρκεια: 108' Καταλληλότητα: - encoder: .:Sexmeup:. Πηγή: German.DL.1080p.BluRay.x264-EmpireHD Υπόθεση: Ένας εκκεντρικός πρώην κατάσκοπος και ο νεότερός του ογδοντάρης συνεργάτης αρχίζουν μια διεθνή αναζήτηση για μια πολύτιμη φόρμουλα ρώσικου αναψυκτικού. ΑΝ ΘΕΛΕΤΕ ΝΑ ΣΤΗΡΙΞΕΤΕ ΤΗΝ ΔΟΥΛΕΙΑ ΜΟΥ ΚΑΝΤΕ ΕΥΚΟΛΑ ΚΑΙ ΓΡΗΓΟΡΑ ΛΟΓΑΡΙΑΣΜΟ ΣΤΟ EASYBYTEZ KAI KATEΒΑΣΤΕ ΣΑΝ PREMIUM AΠO 20 HOST!! http://www.easybytez.com/free2771.html [Hidden Content] [Hidden Content] [Hidden Content]
  20. Full Release Name: THE 101-YEAR-OLD MAN WHO SKIPPED OUT ON THE BILL AND DISAPPEARED (2016) BluRay 720p 5.1 CH Sexmeup 1.9 GB Είδος Ταινίας: Adventure, Comedy, Crime Πρεμιέρα: 25 December 2016 (Sweden) Σκηνοθέτης: Felix Herngren, Mans Herngren Σενάριο: Hans Ingemansson (script), Felix Herngren (script) Ηθοποιοί: Robert Gustafsson, Iwar Wiklander, David Wiberg Υπότιτλοι: Ελληνικοί Ενσωματωμένοι & Σε Ξεχωριστό Αρχείο Ελληνικός Τίτλος: Ο Εκατοντάχρονος που Δεν Πλήρωσε τον Λογαριασμό και Εξαφανίστηκε Γνωστό και ως: Hundraettaringen som smet fran notan och forsvann Μετάφραση: Σωτάκη Κωνσταντίνα Διάρκεια: 108' Καταλληλότητα: - encoder: .:Sexmeup:. Πηγή: German.DL.1080p.BluRay.x264-EmpireHD Υπόθεση: Ένας εκκεντρικός πρώην κατάσκοπος και ο νεότερός του ογδοντάρης συνεργάτης αρχίζουν μια διεθνή αναζήτηση για μια πολύτιμη φόρμουλα ρώσικου αναψυκτικού. ΑΝ ΘΕΛΕΤΕ ΝΑ ΣΤΗΡΙΞΕΤΕ ΤΗΝ ΔΟΥΛΕΙΑ ΜΟΥ ΚΑΝΤΕ ΕΥΚΟΛΑ ΚΑΙ ΓΡΗΓΟΡΑ ΛΟΓΑΡΙΑΣΜΟ ΣΤΟ EASYBYTEZ KAI KATEΒΑΣΤΕ ΣΑΝ PREMIUM AΠO 20 HOST!! http://www.easybytez.com/free2771.html [Hidden Content] [Hidden Content] [Hidden Content]
  21. Είδος Ταινίας: Adventure, Comedy Πρεμιέρα: 23 February 2017 (Germany) Σκηνοθέτης: Florian Schnell Σενάριο: Jan Cronauer, Florian Schnell Ηθοποιοί: Moritz Jahn, Mala Emde, Ugur Ekeroglu Υπότιτλοι: Ελληνικοί Ενσωματωμένοι & Σε Ξεχωριστό Αρχείο Ελληνικός Τίτλος: Offline: Η Ζωή δεν είναι Video Game Γνωστό και ως: Offline - Das Leben ist kein Bonuslevel Μετάφραση: Νικολέττα Γεωργακοπούλου Διάρκεια: 91' Καταλληλότητα: - encoder: .:Sexmeup:. Πηγή: 1080p.WEBRip.x264-STRiFE Υπόθεση: Η ζωή του Γιαν, ενός ανταγωνιστικού gamer, ανατρέπεται όταν ο ύπουλος αντίπαλός του χακάρει την ταυτότητά του λίγο πριν από ένα σημαντικό τουρνουά. ΑΝ ΘΕΛΕΤΕ ΝΑ ΣΤΗΡΙΞΕΤΕ ΤΗΝ ΔΟΥΛΕΙΑ ΜΟΥ ΚΑΝΤΕ ΕΥΚΟΛΑ ΚΑΙ ΓΡΗΓΟΡΑ ΛΟΓΑΡΙΑΣΜΟ ΣΤΟ EASYBYTEZ KAI KATEΒΑΣΤΕ ΣΑΝ PREMIUM AΠO 20 HOST!! http://www.easybytez.com/free2771.html [Hidden Content] [Hidden Content] [Hidden Content]
  22. Είδος Ταινίας: Adventure, Comedy Πρεμιέρα: 23 February 2017 (Germany) Σκηνοθέτης: Florian Schnell Σενάριο: Jan Cronauer, Florian Schnell Ηθοποιοί: Moritz Jahn, Mala Emde, Ugur Ekeroglu Υπότιτλοι: Ελληνικοί Ενσωματωμένοι & Σε Ξεχωριστό Αρχείο Ελληνικός Τίτλος: Offline: Η Ζωή δεν είναι Video Game Γνωστό και ως: Offline - Das Leben ist kein Bonuslevel Μετάφραση: Νικολέττα Γεωργακοπούλου Διάρκεια: 91' Καταλληλότητα: - encoder: .:Sexmeup:. Πηγή: 1080p.WEBRip.x264-STRiFE Υπόθεση: Η ζωή του Γιαν, ενός ανταγωνιστικού gamer, ανατρέπεται όταν ο ύπουλος αντίπαλός του χακάρει την ταυτότητά του λίγο πριν από ένα σημαντικό τουρνουά. ΑΝ ΘΕΛΕΤΕ ΝΑ ΣΤΗΡΙΞΕΤΕ ΤΗΝ ΔΟΥΛΕΙΑ ΜΟΥ ΚΑΝΤΕ ΕΥΚΟΛΑ ΚΑΙ ΓΡΗΓΟΡΑ ΛΟΓΑΡΙΑΣΜΟ ΣΤΟ EASYBYTEZ KAI KATEΒΑΣΤΕ ΣΑΝ PREMIUM AΠO 20 HOST!! http://www.easybytez.com/free2771.html [Hidden Content] [Hidden Content] [Hidden Content]
  23. Είδος Ταινίας: Adventure, Comedy, Drama Πρεμιέρα: 23 February 2017 (Germany) Σκηνοθέτης: Detlev Buck Σενάριο: Detlev Buck, Bettina Borgerding Ηθοποιοί: Fabian Buch, Winnie Bowe, Karim Gunes Υπότιτλοι: Ελληνικοί Ενσωματωμένοι & Σε Ξεχωριστό Αρχείο Ελληνικός Τίτλος: Μπίμπι και Τίνα: Το Απόλυτο Πανδαιμόνιο Γνωστό και ως: Bibi & Tina: Tohuwabohu total Μετάφραση: Αριστέα Μετζητάκου Διάρκεια: 106' Καταλληλότητα: - encoder: .:Sexmeup:. Πηγή: German.1080p.BluRay.x264-EmpireHD Υπόθεση: Η έφηβη μάγισσα Μπίμπι και η φίλη της Τίνα επιστρέφουν για να επανασυνδέσουν ένα κορίτσι με τη στενόμυαλη οικογένειά του και να σώσουν το Κάστρο Φάλκενσταϊν. ΑΝ ΘΕΛΕΤΕ ΝΑ ΣΤΗΡΙΞΕΤΕ ΤΗΝ ΔΟΥΛΕΙΑ ΜΟΥ ΚΑΝΤΕ ΕΥΚΟΛΑ ΚΑΙ ΓΡΗΓΟΡΑ ΛΟΓΑΡΙΑΣΜΟ ΣΤΟ EASYBYTEZ KAI KATEΒΑΣΤΕ ΣΑΝ PREMIUM AΠO 20 HOST!! http://www.easybytez.com/free2771.html [Hidden Content] [Hidden Content] [Hidden Content]
  24. Είδος Ταινίας: Adventure, Comedy, Drama Πρεμιέρα: 23 February 2017 (Germany) Σκηνοθέτης: Detlev Buck Σενάριο: Detlev Buck, Bettina Borgerding Ηθοποιοί: Fabian Buch, Winnie Bowe, Karim Gunes Υπότιτλοι: Ελληνικοί Ενσωματωμένοι & Σε Ξεχωριστό Αρχείο Ελληνικός Τίτλος: Μπίμπι και Τίνα: Το Απόλυτο Πανδαιμόνιο Γνωστό και ως: Bibi & Tina: Tohuwabohu total Μετάφραση: Αριστέα Μετζητάκου Διάρκεια: 106' Καταλληλότητα: - encoder: .:Sexmeup:. Πηγή: German.1080p.BluRay.x264-EmpireHD Υπόθεση: Η έφηβη μάγισσα Μπίμπι και η φίλη της Τίνα επιστρέφουν για να επανασυνδέσουν ένα κορίτσι με τη στενόμυαλη οικογένειά του και να σώσουν το Κάστρο Φάλκενσταϊν. ΑΝ ΘΕΛΕΤΕ ΝΑ ΣΤΗΡΙΞΕΤΕ ΤΗΝ ΔΟΥΛΕΙΑ ΜΟΥ ΚΑΝΤΕ ΕΥΚΟΛΑ ΚΑΙ ΓΡΗΓΟΡΑ ΛΟΓΑΡΙΑΣΜΟ ΣΤΟ EASYBYTEZ KAI KATEΒΑΣΤΕ ΣΑΝ PREMIUM AΠO 20 HOST!! http://www.easybytez.com/free2771.html [Hidden Content] [Hidden Content] [Hidden Content]
  25. Είδος Ταινίας: Adventure, Comedy, Crime Πρεμιέρα: 15 April 2016 (Germany) Σκηνοθέτης: Aaron Nee, Adam Nee Σενάριο: Aaron Nee, Adam Nee Ηθοποιοί: Kyle Gallner, Adam Nee, Matthew Gray Gubler Υπότιτλοι: Ελληνικοί Ενσωματωμένοι & Σε Ξεχωριστό Αρχείο Μετάφραση: Σάρα Κουτρουμάνου Διάρκεια: 95' Καταλληλότητα: - encoder: .:Sexmeup:. Πηγή: 1080p.BluRay.x264-SADPANDA Υπόθεση: Ο απατεωνάκος Χακ Φιν ελπίζει να μην ξαναμπείί στη φυλακή, αλλά ο δια βίου φίλος του, και διεφθαρμένος μπάτσος, Τομ Σόγιερ, έχει άλλα σχέδια. Χωρίς να μπορεί να απαρνηθεί να τις φαντασιώσεις της παιδικής ηλικίας, του πλούτου και της περιπέτειας, ο Τομ στήνει μια "Συμμορία Ληστών", στρατολογώντας τους απροσάρμοστος φίλους του Joe Harper και Ben Rogers, σε ένα περίτεχνο σχέδιο εύρεσης ενός μυθικού θησαυρού. Καθώς το σχέδιο ξετυλίγεται σύντομα, τα παιδιά μπλέκουν σε ένα άγριο ταξίδι με επικίνδυνες συνέπειες ... ΑΝ ΘΕΛΕΤΕ ΝΑ ΣΤΗΡΙΞΕΤΕ ΤΗΝ ΔΟΥΛΕΙΑ ΜΟΥ ΚΑΝΤΕ ΕΥΚΟΛΑ ΚΑΙ ΓΡΗΓΟΡΑ ΛΟΓΑΡΙΑΣΜΟ ΣΤΟ EASYBYTEZ KAI KATEΒΑΣΤΕ ΣΑΝ PREMIUM AΠO 20 HOST!! http://www.easybytez.com/free2771.html [Hidden Content] [Hidden Content] [Hidden Content]
×