Μετάβαση στο περιεχόμενο

Αναζήτηση στην κοινότητα

Εμφάνιση αποτελεσμάτων για τις ετικέτες 'biography'.

  • Αναζήτηση με βάση τις ετικέτες

    Πληκτρολογήστε τις ετικέτες και χωρίστε τες με κόμμα.
  • Αναζήτηση με βάση τον συγγραφέα

Τύπος περιεχομένου


Ενότητες

  • ELLINOMANIA
    • Ανακοινώσεις - Announcements
    • Κανονισμοί - Rules
    • Τεχνική Υποστήριξη - Help Section
    • Ψηφοφορίες
    • Βοηθήματα προς τα μέλη
    • Ellinomania Διαγωνισμοί
    • Προτάσεις/Παράπονα
  • Το στέκι μας - Our chat place
    • Ellinomania Café
    • Χώρος Υποδοχής - Reception Place
    • Αθλητισμός - Sports Chat
    • Η/Y, internet
    • Το στέκι των φοιτητών/μαθητών
    • Εορτές - Γενέθλια
    • Νέα και Ειδήσεις από την Ελλάδα και τον Κόσμο
    • Funny Place
    • Η γωνιά του καλλιτέχνη - Artist's Corner
    • Μπουκιά & Συχώριο
    • Το στέκι των ζωοφίλων
    • Προγνωστικά Στοιχήματος
    • Μικρές Αγγελίες - Small Announcements
    • Ο χώρος του μεταφυσικού
  • Greek Music - Direct Download
    • Promo Songs
    • Νέες Ελληνικές Κυκλοφορίες/New Greek Releases 2013 - 2018
    • Νέες Κυκλοφορίες Περιοδικών/Εφημερίδων
    • Ελληνικές Συλλογές/Greek Collections
    • Greek Remixes & DJ Club
    • Δισκογραφίες - discographies
    • Soundtracks
    • Παλαιότερες Ελληνικές Κυκλοφορίες - Older Greek Releases
    • Παραδοσιακά - Greek Traditional Music
    • Παλιά/Σπάνια Λαϊκά & Ρεμπέτικα - Old & Rare
    • Εορταστική μουσική - Music for celebrations
    • Μουσική για Παιδιά - Music For Children
    • Μουσική Σάτυρα
    • Βυζαντινή & Εκκλησιαστική Μουσική
    • Αναζητήσεις - Request
  • Ελληνική Μουσική - Greek Music
  • International Music - Direct Download
    • Ξένα Promos
    • Ξένη Μουσική - Foreign Music
    • Ξένα Mixes / Remixes
    • Ξένες Συλλογές/Foreign Collections
    • Box Sets - Complete Collections
    • Ξένες Δισκογραφίες
    • Ξένα Soundtracks
    • Κλασσική μουσική - Classical music
  • Direct Download - Ταινίες,Σειρές
    • Ελληνικές Ταινίες - Greek Movies
    • Ξένες Ταινίες - Foreign Movies
    • Ταινίες Υψηλής Ευκρίνειας - High Definition Movies
    • Ελληνικές Σειρές - Greek Series
    • Ξένες Σειρές - Foreign Series
    • Ντοκιμαντέρ - Documentaries
    • Κινούμενα σχέδια - Cartoons
    • Αθλητικά γεγονότα - Sport events
    • Trailers
    • Αναζήτηση ταινιών
  • Ταινίες - Movies
  • Direct Download - Προγράμματα
    • Προγράμματα
    • Αναζήτηση προγραμμάτων
  • Παιχνίδια - Games
  • Direct Download - Παιχνίδια
    • Παιχνίδια
    • Games Trailers
    • Αναζήτηση Παιχνιδιών
  • Direct Download - Διάφορα
    • Video Clips και Συναυλίες
    • Μουσικά DVD και TV Show
    • Διάφορα Videos
    • Video Tutorials
    • E-Books
    • Κινητή τηλεφωνία
  • Golden/Silver Members Area
    • Golden Member Music Paradise Area - Ελληνικές Κυκλοφορίες CD σε υψηλή ποιότητα
    • Φιλμογραφίες - Συλλογές γνωστών ηθοποιών
    • Τρισδιάστατες Ταινίες - 3D Movies
    • Hacks and Tools
    • Compact Disc Club
    • Delta Club
    • Café del Mar
    • Αdult Zone
    • Ειδική Αναζήτηση / Ειδικό Request για ληγμένους συνδέσμους
    • Συζήτηση Golden/Silver μελών
  • Dead Links
    • Dead Links
  • Ellinomania Team
    • Ellinomania Team
  • Trashcan
    • Trashcan
  • Παλαιότερες Ξένες Σειρές
  • Εγγραφή Εδώ - Register Here
  • CLICK HERE TO RESEND VALIDATION EMAIL
  • ΔΕΝ ΜΠΟΡΩ ΝΑ ΕΝΕΡΓΟΠΟΙΗΣΩ ΤΟ ACCOUNT ΜΟΥ
  • Δοκιμαστικό Forum Για Uploaders - Μόνο Ταινίες
  • Δοκιμαστικό Forum Για Uploaders - Μόνο Ξένα CD's
  • Δοκιμαστικό Forum Για Uploaders - Μόνο Eλληνικά CD's
  • Δοκιμαστικό Forum Για Uploaders - Μόνο PC Games
  • Δοκιμαστικό Forum Για Uploaders - Μόνο Προγράμματα
  • Δοκιμαστικό Forum Για Uploaders - Μόνο Βιβλία/περιοδικά

Ημερολόγια

  • Community Calendar

Found 270 results

  1. Είδος Ταινίας: Biography, Drama Πρεμιέρα: 27 March 2014 (Azerbaijan) Σκηνοθέτης: Jalil Lespert Σενάριο: Marie-Pierre Huster (scenario), Jalil Lespert (scenario) Ηθοποιοί: Pierre Niney, Guillaume Gallienne, Charlotte Le Bon Υπότιτλοι: Ελληνικοί Ενσωματωμένοι & Σε Ξεχωριστό Αρχείο Ελληνικός Τίτλος: Ιβ Σεν Λοράν Γνωστό και ως: Iv San Loghan Μετάφραση: Nicas Διάρκεια: 106' Καταλληλότητα: - encoder: .:Sexmeup:. Πηγή: 1080p.BluRay.DTS.x264-HR Υπόθεση: Παρίσι, 1957. Ο Ιβ Σεν Λοράν είναι μόλις είκοσι ενός και κάνει τα πρώτα του βήματα στον διάσημο οίκο του Κριστιάν Ντιόρ. Όλα τα βλέμματα είναι στραμμένα στην πρώτη του κολεξιόν, οι δημιουργίες του εκθειάζονται και ο ευφυής σχεδιαστής γνωρίζει τον έρωτα της ζωής του, μετέπειτα σύντροφο και συνέταιρο του, Πιέρ Μπερζέ. Μέσα σε τρία χρόνια, η αυτοκρατορία Yves Saint Laurent είναι πραγματικότητα, ξεχωρίζει θριαμβευτικά στον κόσμο της υψηλής ραπτικής, όμως οι δαίμονες και οι αμφιβολίες συντροφεύουν τον μανιοκαταθλιπτικό και ευφυή σχεδιαστή μέχρι την κορυφή. http://www.imdb.com/title/tt2707858/[/CODE] [IMG=http://c1.staticflickr.com/5/4780/40089464785_599858f97a_o.png] [IMG=http://farm2.staticflickr.com/1727/28486470118_9dfcd1899c_o.jpg] [IMG=http://c1.staticflickr.com/1/799/40982563121_97d9e4fb96_o.png] [video=youtube;bXQoO9r_CuY]http://www.youtube.com/watch?v=bXQoO9r_CuY[/video] [FONT=verdana][B]TEXNIKA XAΡΑΚΤΗΡΙΣΤΙΚΑ [/B][/FONT] [SPOILER] [CODE] General Unique ID : 182641694651053614858066219203039057710 (0x896782C92D2D913B43B1EB3E705BD72E) Complete name : C:\Users\Administrator\Downloads\Yves Saint Laurent 2014 1080p BluRay DTS x264-HR.mkv Format : Matroska Format version : Version 4 / Version 2 File size : 8.99 GiB Duration : 1 h 45 min Overall bit rate : 12.2 Mb/s Encoded date : UTC 2014-09-18 06:18:43 Writing application : mkvmerge v7.1.0 ('Good Love') 64bit built on Jul 27 2014 12:22:11 Writing library : libebml v1.3.0 + libmatroska v1.4.1 Video ID : 1 Format : AVC Format/Info : Advanced Video Codec Format profile : [email protected] Format settings : CABAC / 5 Ref Frames Format settings, CABAC : Yes Format settings, RefFrames : 5 frames Codec ID : V_MPEG4/ISO/AVC Duration : 1 h 45 min Bit rate : 10.7 Mb/s Width : 1 920 pixels Height : 804 pixels Display aspect ratio : 2.40:1 Frame rate mode : Constant Frame rate : 24.000 FPS Color space : YUV Chroma subsampling : 4:2:0 Bit depth : 8 bits Scan type : Progressive Bits/(Pixel*Frame) : 0.289 Stream size : 7.87 GiB (88%) Writing library : x264 core 140 r2 1ca7bb9 Encoding settings : cabac=1 / ref=5 / deblock=1:-3:-3 / analyse=0x3:0x113 / me=umh / subme=11 / psy=1 / psy_rd=1.00:0.28 / mixed_ref=1 / me_range=128 / chroma_me=1 / trellis=2 / 8x8dct=1 / cqm=0 / deadzone=6,6 / fast_pskip=0 / chroma_qp_offset=-4 / threads=12 / lookahead_threads=2 / sliced_threads=0 / nr=0 / decimate=0 / interlaced=0 / bluray_compat=0 / constrained_intra=0 / bframes=8 / b_pyramid=2 / b_adapt=2 / b_bias=0 / direct=3 / weightb=1 / open_gop=1 / weightp=2 / keyint=250 / keyint_min=24 / scenecut=40 / intra_refresh=0 / rc_lookahead=250 / rc=crf / mbtree=1 / crf=18.5 / qcomp=0.65 / qpmin=0 / qpmax=69 / qpstep=4 / vbv_maxrate=50000 / vbv_bufsize=50000 / crf_max=0.0 / nal_hrd=none / filler=0 / ip_ratio=1.40 / aq=2:0.75 Language : English Default : Yes Forced : No Color range : Limited Color primaries : BT.709 Transfer characteristics : BT.709 Matrix coefficients : BT.709 Audio ID : 2 Format : DTS Format/Info : Digital Theater Systems Codec ID : A_DTS Duration : 1 h 45 min Bit rate mode : Constant Bit rate : 1 509 kb/s Channel(s) : 6 channels Channel positions : Front: L C R, Side: L R, LFE Sampling rate : 48.0 kHz Frame rate : 93.750 FPS (512 SPF) Bit depth : 16 bits Compression mode : Lossy Stream size : 1.11 GiB (12%) Title : FRENCH DTS 5.1 @ 1510 kbps Language : French Default : Yes Forced : No Text ID : 3 Format : PGS Muxing mode : zlib Codec ID : S_HDMV/PGS Codec ID/Info : Picture based subtitle format used on BDs/HD-DVDs Duration : 1 h 43 min Bit rate : 7 474 b/s Count of elements : 2090 Stream size : 5.53 MiB (0%) Title : ENGLISH FULL Language : English Default : No Forced : No [/CODE] [/SPOILER] [IMG=http://c1.staticflickr.com/1/791/39173997270_2f2136d533_o.png] [IMG=http://c1.staticflickr.com/1/789/39174288770_254a09d05d_o.png] [SIZE=3][FONT=verdana][B]ΑΝ ΘΕΛΕΤΕ ΝΑ ΣΤΗΡΙΞΕΤΕ ΤΗΝ ΔΟΥΛΕΙΑ ΜΟΥ ΚΑΝΤΕ ΕΥΚΟΛΑ ΚΑΙ ΓΡΗΓΟΡΑ ΛΟΓΑΡΙΑΣΜΟ ΣΤΟ [COLOR=#ff0000]EASYBYTEZ [/COLOR]KAI KATEΒΑΣΤΕ ΣΑΝ PREMIUM AΠO [COLOR=#ff0000]20 [/COLOR]HOST!! [COLOR=#ff0000]http://www.easybytez.com/free2771.html[/COLOR][/B][/FONT][/SIZE][/CENTER] [Hidden Content] [CENTER][IMG=http://c1.staticflickr.com/1/812/26112042877_04292fbd5e_o.png] [/CENTER] [Hidden Content][CENTER][Hidden Content] [IMG=http://c1.staticflickr.com/5/4786/40089466905_8e4a5d3f42_o.png] [/CENTER]
  2. Είδος Ταινίας: Biography, Drama, History Πρεμιέρα: 2 November 2017 (Czech Republic) Σκηνοθέτης: David Mrnka Σενάριο: David Mrnka, Robert J. Conant Ηθοποιοί: Ayelet Zurer, Robert Gant, Daniel Rchichev Υπότιτλοι: Ελληνικοί Ενσωματωμένοι & Σε Ξεχωριστό Αρχείο Ελληνικός Τίτλος: Μιλάντα Μετάφραση: Ειρήνη Μαρκοπούλου Διάρκεια: 124' Καταλληλότητα: - encoder: .:Sexmeup:. Πηγή: 720p.WEB-DL.AC3.X264-CMRG Υπόθεση: Η Μιλάντα Χοράκοβα, πολιτικός και ακτιβίστρια για τα ανθρώπινα δικαιώματα, παλεύει για να υπερασπιστεί τα πιστεύω της στην κομμουνιστική Τσεχοσλοβακία. ΑΝ ΘΕΛΕΤΕ ΝΑ ΣΤΗΡΙΞΕΤΕ ΤΗΝ ΔΟΥΛΕΙΑ ΜΟΥ ΚΑΝΤΕ ΕΥΚΟΛΑ ΚΑΙ ΓΡΗΓΟΡΑ ΛΟΓΑΡΙΑΣΜΟ ΣΤΟ EASYBYTEZ KAI KATEΒΑΣΤΕ ΣΑΝ PREMIUM AΠO 20 HOST!! http://www.easybytez.com/free2771.html [Hidden Content] [Hidden Content] [Hidden Content]
  3. Είδος Ταινίας: Biography, Drama, History Πρεμιέρα: 23 September 2016 (Norway) Σκηνοθέτης: Erik Poppe Σενάριο: Harald Rosenlow-Eeg, Jan Trygve Royneland Ηθοποιοί: Jesper Christensen, Anders Baasmo Christiansen, Karl Markovics Υπότιτλοι: Ελληνικοί Ενσωματωμένοι & Σε Ξεχωριστό Αρχείο Γνωστό και ως: Kongens nei Μετάφραση: MedievalGuy Διάρκεια: 133' Καταλληλότητα: - encoder: .:Sexmeup:. Πηγή: 1080p.BluRay.DTS-HD.MA.5.1.x264-HDH Υπόθεση: Τη νύχτα της 9ης Απριλίου του 1945, ο στόλος των ναζί επιτίθεται στο Όσλο. Όταν οι χιτλερικές δυνάμεις δίνουν τελεσίγραφο για παράδοση, ο νορβηγός πρωθυπουργός παραδίδει την παραίτηση του. Η χώρα μοιάζει να διαλύεται, αλλά υπάρχουν δύο άντρες που πιστεύουν ακόμα σε αυτήν. Ο βασιλιάς Χάακον και ο γερμανός διπλωμάτης Κουρτ Μπράουερ. Οι ναζί διατάζουν να κυνηγηθεί ο βασιλιάς και η οικογένεια του. Κι ενώ ο βασιλιάς δεν γνωρίζει αν τον στηρίζουν ούτε ο γιος του, ούτε η βουλή, αντιμετωπίζει μια επιλογή που θα αλλάξει τη μοίρα του έθνους για πάντα. ΑΝ ΘΕΛΕΤΕ ΝΑ ΣΤΗΡΙΞΕΤΕ ΤΗΝ ΔΟΥΛΕΙΑ ΜΟΥ ΚΑΝΤΕ ΕΥΚΟΛΑ ΚΑΙ ΓΡΗΓΟΡΑ ΛΟΓΑΡΙΑΣΜΟ ΣΤΟ EASYBYTEZ KAI KATEΒΑΣΤΕ ΣΑΝ PREMIUM AΠO 20 HOST!! http://www.easybytez.com/free2771.html [Hidden Content] [Hidden Content] [Hidden Content]
  4. Είδος Ταινίας: Biography, Drama, History Πρεμιέρα: 23 September 2016 (Norway) Σκηνοθέτης: Erik Poppe Σενάριο: Harald Rosenlow-Eeg, Jan Trygve Royneland Ηθοποιοί: Jesper Christensen, Anders Baasmo Christiansen, Karl Markovics Υπότιτλοι: Ελληνικοί Ενσωματωμένοι & Σε Ξεχωριστό Αρχείο Γνωστό και ως: Kongens nei Μετάφραση: MedievalGuy Διάρκεια: 133' Καταλληλότητα: - encoder: .:Sexmeup:. Πηγή: 1080p.BluRay.DTS-HD.MA.5.1.x264-HDH Υπόθεση: Τη νύχτα της 9ης Απριλίου του 1945, ο στόλος των ναζί επιτίθεται στο Όσλο. Όταν οι χιτλερικές δυνάμεις δίνουν τελεσίγραφο για παράδοση, ο νορβηγός πρωθυπουργός παραδίδει την παραίτηση του. Η χώρα μοιάζει να διαλύεται, αλλά υπάρχουν δύο άντρες που πιστεύουν ακόμα σε αυτήν. Ο βασιλιάς Χάακον και ο γερμανός διπλωμάτης Κουρτ Μπράουερ. Οι ναζί διατάζουν να κυνηγηθεί ο βασιλιάς και η οικογένεια του. Κι ενώ ο βασιλιάς δεν γνωρίζει αν τον στηρίζουν ούτε ο γιος του, ούτε η βουλή, αντιμετωπίζει μια επιλογή που θα αλλάξει τη μοίρα του έθνους για πάντα. ΑΝ ΘΕΛΕΤΕ ΝΑ ΣΤΗΡΙΞΕΤΕ ΤΗΝ ΔΟΥΛΕΙΑ ΜΟΥ ΚΑΝΤΕ ΕΥΚΟΛΑ ΚΑΙ ΓΡΗΓΟΡΑ ΛΟΓΑΡΙΑΣΜΟ ΣΤΟ EASYBYTEZ KAI KATEΒΑΣΤΕ ΣΑΝ PREMIUM AΠO 20 HOST!! http://www.easybytez.com/free2771.html [Hidden Content] [Hidden Content] [Hidden Content]
  5. Είδος Ταινίας: Biography, Drama Πρεμιέρα: 19 December 2013 (Greece) Σκηνοθέτης: Lee Daniels Σενάριο: Danny Strong, Wil Haygood (article) Ηθοποιοί: Forest Whitaker, Oprah Winfrey, John Cusack Υπότιτλοι: Ελληνικοί Ενσωματωμένοι & Σε Ξεχωριστό Αρχείο Ελληνικός Τίτλος: Ο μπάτλερ Γνωστό και ως: Lee Daniels` The Butler Μετάφραση: Σπύρος Διάρκεια: 132' Καταλληλότητα: - encoder: .:Sexmeup:. Πηγή: 1080p.BluRay.x264-SPARKS Υπόθεση: Η ιστορία ξεκινά από το 1926, όπου συναντάμε τον νεαρό Σεσίλ να προσπαθεί να ξεφύγει από το τυραννικό και φυλετικά διαχωρισμένο Νότο, σε αναζήτηση μιας καλύτερης ζωής. Στο δύσκολο αυτό ταξίδι προς την ενηλικίωση, ο Σεσίλ θα αποκτήσει ανεκτίμητα εφόδια που τελικά θα τον οδηγήσουν σε μια ευκαιρία ζωής: να δουλέψει ως μπάτλερ στη λεωφόρο Πενσυλβάνια, νούμερο 1600. Εκεί, ο Σεσίλ θα γίνει από πρώτο χέρι μάρτυρας των ιστορικών γεγονότων και των εσωτερικών υποθέσεων του οβάλ γραφείου, την ώρα που εξελίσσονταν παράλληλα ο αγώνας για τα πολιτικά δικαιώματα των μαύρων. Ένας άντρας. Επτά πρόεδροι. Βασισμένη σε μια απίστευτη ιστορία. Extras: Η ιστορία βασίζεται στη ζωή του Γιουτζίν Άλεν (1919-2010). Ο πρώτος ρόλος της Oprah Winfrey από το 1998 και το Αγαπημένη. Υποψήφιοι για ρόλους ήταν οι: Nicole Kidman, Hugh Jackman, Zac Efron, Mila Kunis (Τζάκι Κένεντι), Matthew McConaughey (Τζον Κένεντι) και Liam Neeson (Λίντον Τζόνσον). Η Melissa Leo έπαιξε τον ρόλο της Μέιμι Αϊζενχάουερ, αλλά κόπηκε από το τελικό μοντάζ. ΑΝ ΘΕΛΕΤΕ ΝΑ ΣΤΗΡΙΞΕΤΕ ΤΗΝ ΔΟΥΛΕΙΑ ΜΟΥ ΚΑΝΤΕ ΕΥΚΟΛΑ ΚΑΙ ΓΡΗΓΟΡΑ ΛΟΓΑΡΙΑΣΜΟ ΣΤΟ EASYBYTEZ KAI KATEΒΑΣΤΕ ΣΑΝ PREMIUM AΠO 20 HOST!! http://www.easybytez.com/free2771.html [Hidden Content] [Hidden Content] [Hidden Content]
  6. Είδος Ταινίας: Biography, Drama Πρεμιέρα: 19 December 2013 (Greece) Σκηνοθέτης: Lee Daniels Σενάριο: Danny Strong, Wil Haygood (article) Ηθοποιοί: Forest Whitaker, Oprah Winfrey, John Cusack Υπότιτλοι: Ελληνικοί Ενσωματωμένοι & Σε Ξεχωριστό Αρχείο Ελληνικός Τίτλος: Ο μπάτλερ Γνωστό και ως: Lee Daniels` The Butler Μετάφραση: Σπύρος Διάρκεια: 132' Καταλληλότητα: - encoder: .:Sexmeup:. Πηγή: 1080p.BluRay.x264-SPARKS Υπόθεση: Η ιστορία ξεκινά από το 1926, όπου συναντάμε τον νεαρό Σεσίλ να προσπαθεί να ξεφύγει από το τυραννικό και φυλετικά διαχωρισμένο Νότο, σε αναζήτηση μιας καλύτερης ζωής. Στο δύσκολο αυτό ταξίδι προς την ενηλικίωση, ο Σεσίλ θα αποκτήσει ανεκτίμητα εφόδια που τελικά θα τον οδηγήσουν σε μια ευκαιρία ζωής: να δουλέψει ως μπάτλερ στη λεωφόρο Πενσυλβάνια, νούμερο 1600. Εκεί, ο Σεσίλ θα γίνει από πρώτο χέρι μάρτυρας των ιστορικών γεγονότων και των εσωτερικών υποθέσεων του οβάλ γραφείου, την ώρα που εξελίσσονταν παράλληλα ο αγώνας για τα πολιτικά δικαιώματα των μαύρων. Ένας άντρας. Επτά πρόεδροι. Βασισμένη σε μια απίστευτη ιστορία. Extras: Η ιστορία βασίζεται στη ζωή του Γιουτζίν Άλεν (1919-2010). Ο πρώτος ρόλος της Oprah Winfrey από το 1998 και το Αγαπημένη. Υποψήφιοι για ρόλους ήταν οι: Nicole Kidman, Hugh Jackman, Zac Efron, Mila Kunis (Τζάκι Κένεντι), Matthew McConaughey (Τζον Κένεντι) και Liam Neeson (Λίντον Τζόνσον). Η Melissa Leo έπαιξε τον ρόλο της Μέιμι Αϊζενχάουερ, αλλά κόπηκε από το τελικό μοντάζ. ΑΝ ΘΕΛΕΤΕ ΝΑ ΣΤΗΡΙΞΕΤΕ ΤΗΝ ΔΟΥΛΕΙΑ ΜΟΥ ΚΑΝΤΕ ΕΥΚΟΛΑ ΚΑΙ ΓΡΗΓΟΡΑ ΛΟΓΑΡΙΑΣΜΟ ΣΤΟ EASYBYTEZ KAI KATEΒΑΣΤΕ ΣΑΝ PREMIUM AΠO 20 HOST!! http://www.easybytez.com/free2771.html [Hidden Content] [Hidden Content] [Hidden Content]
  7. Είδος Ταινίας: Biography, Comedy, Drama Πρεμιέρα: 21 February 2013 (Greece) Σκηνοθέτης: Ben Lewin Σενάριο: Ben Lewin (written for the screen by), Mark O'Brien (article) Ηθοποιοί: John Hawkes, Helen Hunt, William H. Macy Υπότιτλοι: Ελληνικοί Ενσωματωμένοι & Σε Ξεχωριστό Αρχείο Ελληνικός Τίτλος: Μαθήματα Ενηλικίωσης Γνωστό και ως: The Surrogate Μετάφραση: Petrina516 ~ Gwgw317 ~ P3iraths Διάρκεια: 95' Καταλληλότητα: - encoder: .:Sexmeup:. Πηγή: 1080p.BluRay.x264-SPARKS Υπόθεση: Ο Μαρκ Ο'Μπράιεν είναι ένας 36χρονος που ζει σε θάλαμο υποστήριξης αναπνοής κι αποφασίζει ότι δεν θέλει πια να παραμένει παρθένος. Με τη βοήθεια του γιατρού και του ιερέα του, επικοινωνεί με την Τσέριλ, μια σεξο-θεραπεύτρια, αλλά και τυπική μητέρα και σύζυγος. Η πορεία του Μαρκ προς τον αντρισμό θα αποδειχτεί αληθινά ιδιαίτερη, όπως και η σχέση αυτών των δύο ανθρώπων. Βασισμένο σε μια θριαμβευτική αληθινή ιστορία. Extras: Βραβείο συνολικού καστ και βραβείο κοινού στο φεστιβάλ του Sundance. Βασίζεται σε απόλυτα αληθινή ιστορία, που έγινε βραβευμένο ντοκιμαντέρ το 1996 (Breathing Lessons: The Life and Work of Mark O`Brien). Ο αληθινός Ο'Μπράιεν έφυγε από τη ζωή το 1999, σε ηλικία 49 ετών. ΑΝ ΘΕΛΕΤΕ ΝΑ ΣΤΗΡΙΞΕΤΕ ΤΗΝ ΔΟΥΛΕΙΑ ΜΟΥ ΚΑΝΤΕ ΕΥΚΟΛΑ ΚΑΙ ΓΡΗΓΟΡΑ ΛΟΓΑΡΙΑΣΜΟ ΣΤΟ EASYBYTEZ KAI KATEΒΑΣΤΕ ΣΑΝ PREMIUM AΠO 20 HOST!! http://www.easybytez.com/free2771.html [Hidden Content] [Hidden Content] [Hidden Content]
  8. Είδος Ταινίας: Biography, Comedy, Drama Πρεμιέρα: 21 February 2013 (Greece) Σκηνοθέτης: Ben Lewin Σενάριο: Ben Lewin (written for the screen by), Mark O'Brien (article) Ηθοποιοί: John Hawkes, Helen Hunt, William H. Macy Υπότιτλοι: Ελληνικοί Ενσωματωμένοι & Σε Ξεχωριστό Αρχείο Ελληνικός Τίτλος: Μαθήματα Ενηλικίωσης Γνωστό και ως: The Surrogate Μετάφραση: Petrina516 ~ Gwgw317 ~ P3iraths Διάρκεια: 95' Καταλληλότητα: - encoder: .:Sexmeup:. Πηγή: 1080p.BluRay.x264-SPARKS Υπόθεση: Ο Μαρκ Ο'Μπράιεν είναι ένας 36χρονος που ζει σε θάλαμο υποστήριξης αναπνοής κι αποφασίζει ότι δεν θέλει πια να παραμένει παρθένος. Με τη βοήθεια του γιατρού και του ιερέα του, επικοινωνεί με την Τσέριλ, μια σεξο-θεραπεύτρια, αλλά και τυπική μητέρα και σύζυγος. Η πορεία του Μαρκ προς τον αντρισμό θα αποδειχτεί αληθινά ιδιαίτερη, όπως και η σχέση αυτών των δύο ανθρώπων. Βασισμένο σε μια θριαμβευτική αληθινή ιστορία. Extras: Βραβείο συνολικού καστ και βραβείο κοινού στο φεστιβάλ του Sundance. Βασίζεται σε απόλυτα αληθινή ιστορία, που έγινε βραβευμένο ντοκιμαντέρ το 1996 (Breathing Lessons: The Life and Work of Mark O`Brien). Ο αληθινός Ο'Μπράιεν έφυγε από τη ζωή το 1999, σε ηλικία 49 ετών. ΑΝ ΘΕΛΕΤΕ ΝΑ ΣΤΗΡΙΞΕΤΕ ΤΗΝ ΔΟΥΛΕΙΑ ΜΟΥ ΚΑΝΤΕ ΕΥΚΟΛΑ ΚΑΙ ΓΡΗΓΟΡΑ ΛΟΓΑΡΙΑΣΜΟ ΣΤΟ EASYBYTEZ KAI KATEΒΑΣΤΕ ΣΑΝ PREMIUM AΠO 20 HOST!! http://www.easybytez.com/free2771.html [Hidden Content] [Hidden Content] [Hidden Content]
  9. Είδος Ταινίας: Biography, Drama, Romance Πρεμιέρα: 17 October 2013 (Greece) Σκηνοθέτης: Ryan Coogler Σενάριο: Ryan Coogler Ηθοποιοί: Michael B. Jordan, Melonie Diaz, Octavia Spencer Υπότιτλοι: Ελληνικοί Ενσωματωμένοι & Σε Ξεχωριστό Αρχείο Ελληνικός Τίτλος: Μια στάση πριν το τέλος Γνωστό και ως: Fruitvale Μετάφραση: asteroula ~ SuperNova Team Διάρκεια: 85' Καταλληλότητα: - encoder: .:Sexmeup:. Πηγή: 1080p.BluRay.x264-SPARKS Υπόθεση: Η ιστορία ακολουθεί τον 22χρονο Όσκαρ Γκραντ, που μένει στο Όκλαντ και ξυπνά το πρωί της 31ης Δεκεμβρίου 2008 και αισθάνεται κάτι στον αέρα. Χωρίς να είναι σίγουρος τι είναι, το εκλαμβάνει ως ένα σημάδι για μια καινούρια αρχή: να γίνει καλύτερος γιος, καλύτερος σύντροφος και καλύτερος πατέρας της 4χρονης Τατιάνα. Η μέρα του ξεκινά μια χαρά, αλλά στην πορεία αντιλαμβάνεται πως αυτή η αλλαγή δεν θα είναι εύκολη. Συναντά φίλους, ξένους και μέλη της οικογένειας αλλά η συνάντησή του με τους αστυνομικούς στοn σταθμό Fruitvale ίσως να είναι μοιραία. Κάθε βήμα σε φέρνει πιο κοντά στο κενό. Extras: Μεγάλο βραβείο επιτροπής και βραβείο κοινού στο φεστιβάλ του Sundance. ΑΝ ΘΕΛΕΤΕ ΝΑ ΣΤΗΡΙΞΕΤΕ ΤΗΝ ΔΟΥΛΕΙΑ ΜΟΥ ΚΑΝΤΕ ΕΥΚΟΛΑ ΚΑΙ ΓΡΗΓΟΡΑ ΛΟΓΑΡΙΑΣΜΟ ΣΤΟ EASYBYTEZ KAI KATEΒΑΣΤΕ ΣΑΝ PREMIUM AΠO 20 HOST!! http://www.easybytez.com/free2771.html [Hidden Content] [Hidden Content] [Hidden Content]
  10. Είδος Ταινίας: Biography, Drama, Romance Πρεμιέρα: 17 October 2013 (Greece) Σκηνοθέτης: Ryan Coogler Σενάριο: Ryan Coogler Ηθοποιοί: Michael B. Jordan, Melonie Diaz, Octavia Spencer Υπότιτλοι: Ελληνικοί Ενσωματωμένοι & Σε Ξεχωριστό Αρχείο Ελληνικός Τίτλος: Μια στάση πριν το τέλος Γνωστό και ως: Fruitvale Μετάφραση: asteroula ~ SuperNova Team Διάρκεια: 85' Καταλληλότητα: - encoder: .:Sexmeup:. Πηγή: 1080p.BluRay.x264-SPARKS Υπόθεση: Η ιστορία ακολουθεί τον 22χρονο Όσκαρ Γκραντ, που μένει στο Όκλαντ και ξυπνά το πρωί της 31ης Δεκεμβρίου 2008 και αισθάνεται κάτι στον αέρα. Χωρίς να είναι σίγουρος τι είναι, το εκλαμβάνει ως ένα σημάδι για μια καινούρια αρχή: να γίνει καλύτερος γιος, καλύτερος σύντροφος και καλύτερος πατέρας της 4χρονης Τατιάνα. Η μέρα του ξεκινά μια χαρά, αλλά στην πορεία αντιλαμβάνεται πως αυτή η αλλαγή δεν θα είναι εύκολη. Συναντά φίλους, ξένους και μέλη της οικογένειας αλλά η συνάντησή του με τους αστυνομικούς στοn σταθμό Fruitvale ίσως να είναι μοιραία. Κάθε βήμα σε φέρνει πιο κοντά στο κενό. Extras: Μεγάλο βραβείο επιτροπής και βραβείο κοινού στο φεστιβάλ του Sundance. ΑΝ ΘΕΛΕΤΕ ΝΑ ΣΤΗΡΙΞΕΤΕ ΤΗΝ ΔΟΥΛΕΙΑ ΜΟΥ ΚΑΝΤΕ ΕΥΚΟΛΑ ΚΑΙ ΓΡΗΓΟΡΑ ΛΟΓΑΡΙΑΣΜΟ ΣΤΟ EASYBYTEZ KAI KATEΒΑΣΤΕ ΣΑΝ PREMIUM AΠO 20 HOST!! http://www.easybytez.com/free2771.html [Hidden Content] [Hidden Content] [Hidden Content]
  11. Είδος Ταινίας: Biography, Drama Πρεμιέρα: 14 August 2015 (USA) Σκηνοθέτης: Khoa Le Σενάριο: Timothy Susanin (book), Diane Disney (foreword) (as Diane Disney Miller) Ηθοποιοί: Thomas Ian Nicholas, Jon Heder, Armando Gutierrez Υπότιτλοι: Ελληνικοί Ενσωματωμένοι & Σε Ξεχωριστό Αρχείο Ελληνικός Τίτλος: Ο Γουόλτ Πριν τον Μίκυ Μετάφραση: Ελίνα Παπαδοπούλου Διάρκεια: 107' Καταλληλότητα: - encoder: .:Sexmeup:. Πηγή: 1080p.WEB-DL.DD5.1.H264-FGT Υπόθεση: Η πορεία του νεαρού Ουώλτ Ντίσνεϊ από το Μιζούρι στο Χόλιγουντ, μέσα από μεγάλες αλλαγές, πρώτες επιχειρηματικές συμφωνίες και εκκολαπτόμενες σχέσεις. ΑΝ ΘΕΛΕΤΕ ΝΑ ΣΤΗΡΙΞΕΤΕ ΤΗΝ ΔΟΥΛΕΙΑ ΜΟΥ ΚΑΝΤΕ ΕΥΚΟΛΑ ΚΑΙ ΓΡΗΓΟΡΑ ΛΟΓΑΡΙΑΣΜΟ ΣΤΟ EASYBYTEZ KAI KATEΒΑΣΤΕ ΣΑΝ PREMIUM AΠO 20 HOST!! http://www.easybytez.com/free2771.html [Hidden Content] [Hidden Content] [Hidden Content]
  12. Είδος Ταινίας: Biography, Drama Πρεμιέρα: 14 August 2015 (USA) Σκηνοθέτης: Khoa Le Σενάριο: Timothy Susanin (book), Diane Disney (foreword) (as Diane Disney Miller) Ηθοποιοί: Thomas Ian Nicholas, Jon Heder, Armando Gutierrez Υπότιτλοι: Ελληνικοί Ενσωματωμένοι & Σε Ξεχωριστό Αρχείο Ελληνικός Τίτλος: Ο Γουόλτ Πριν τον Μίκυ Μετάφραση: Ελίνα Παπαδοπούλου Διάρκεια: 107' Καταλληλότητα: - encoder: .:Sexmeup:. Πηγή: 1080p.WEB-DL.DD5.1.H264-FGT Υπόθεση: Η πορεία του νεαρού Ουώλτ Ντίσνεϊ από το Μιζούρι στο Χόλιγουντ, μέσα από μεγάλες αλλαγές, πρώτες επιχειρηματικές συμφωνίες και εκκολαπτόμενες σχέσεις. ΑΝ ΘΕΛΕΤΕ ΝΑ ΣΤΗΡΙΞΕΤΕ ΤΗΝ ΔΟΥΛΕΙΑ ΜΟΥ ΚΑΝΤΕ ΕΥΚΟΛΑ ΚΑΙ ΓΡΗΓΟΡΑ ΛΟΓΑΡΙΑΣΜΟ ΣΤΟ EASYBYTEZ KAI KATEΒΑΣΤΕ ΣΑΝ PREMIUM AΠO 20 HOST!! http://www.easybytez.com/free2771.html [Hidden Content] [Hidden Content] [Hidden Content]
  13. Είδος Ταινίας: Biography Πρεμιέρα: 10 September 2017 (Italy) Σκηνοθέτης: Michael Radford Σενάριο: Anna Pavignano, Michael Radford Ηθοποιοί: Antonio Banderas, Jordi Molla, Toby Sebastian Υπότιτλοι: Ελληνικοί Ενσωματωμένοι & Σε Ξεχωριστό Αρχείο Γνωστό και ως: La musica del silenzio Μετάφραση: Calamity Jane Διάρκεια: 115' Καταλληλότητα: - encoder: .:Sexmeup:. Πηγή: 1080p.BluRay.x264-BiPOLAR Υπόθεση: Η ζωή του Έιμος Μπάρντι, η οποία ξεκινάει μέσα σε μια αγαπημένη οικογένεια που ενθαρρύνει το μουσικό του ταλέντο. Αλλά μαζί με το ταλέντο, ο Έιμος πάσχει από γλαύκωμα, όπου μετά από ένα ατύχημα στο ποδόσφαιρο, μετατρέπεται σε τύφλωση. Αυτό όμως δεν θα του στερήσει την ανάδειξη σε αστέρι πρώτου μεγέθους και ο Έιμος θα γίνει ένας από τους σπουδαιότερους κλασικούς τραγουδιστές του πλανήτη. Extras: Πίσω από το όνομα Έιμος Μπράντι κρύβεται αυτό του Αντρέα Μποτσέλι, αφού ήταν δική του επιλογή να χρησιμοποιηθεί ως άλτερ-έγκο του. ΑΝ ΘΕΛΕΤΕ ΝΑ ΣΤΗΡΙΞΕΤΕ ΤΗΝ ΔΟΥΛΕΙΑ ΜΟΥ ΚΑΝΤΕ ΕΥΚΟΛΑ ΚΑΙ ΓΡΗΓΟΡΑ ΛΟΓΑΡΙΑΣΜΟ ΣΤΟ EASYBYTEZ KAI KATEΒΑΣΤΕ ΣΑΝ PREMIUM AΠO 20 HOST!! http://www.easybytez.com/free2771.html [Hidden Content] [Hidden Content] [Hidden Content]
  14. Είδος Ταινίας: Biography Πρεμιέρα: 10 September 2017 (Italy) Σκηνοθέτης: Michael Radford Σενάριο: Anna Pavignano, Michael Radford Ηθοποιοί: Antonio Banderas, Jordi Molla, Toby Sebastian Υπότιτλοι: Ελληνικοί Ενσωματωμένοι & Σε Ξεχωριστό Αρχείο Γνωστό και ως: La musica del silenzio Μετάφραση: Calamity Jane Διάρκεια: 115' Καταλληλότητα: - encoder: .:Sexmeup:. Πηγή: 1080p.BluRay.x264-BiPOLAR Υπόθεση: Η ζωή του Έιμος Μπάρντι, η οποία ξεκινάει μέσα σε μια αγαπημένη οικογένεια που ενθαρρύνει το μουσικό του ταλέντο. Αλλά μαζί με το ταλέντο, ο Έιμος πάσχει από γλαύκωμα, όπου μετά από ένα ατύχημα στο ποδόσφαιρο, μετατρέπεται σε τύφλωση. Αυτό όμως δεν θα του στερήσει την ανάδειξη σε αστέρι πρώτου μεγέθους και ο Έιμος θα γίνει ένας από τους σπουδαιότερους κλασικούς τραγουδιστές του πλανήτη. Extras: Πίσω από το όνομα Έιμος Μπράντι κρύβεται αυτό του Αντρέα Μποτσέλι, αφού ήταν δική του επιλογή να χρησιμοποιηθεί ως άλτερ-έγκο του. ΑΝ ΘΕΛΕΤΕ ΝΑ ΣΤΗΡΙΞΕΤΕ ΤΗΝ ΔΟΥΛΕΙΑ ΜΟΥ ΚΑΝΤΕ ΕΥΚΟΛΑ ΚΑΙ ΓΡΗΓΟΡΑ ΛΟΓΑΡΙΑΣΜΟ ΣΤΟ EASYBYTEZ KAI KATEΒΑΣΤΕ ΣΑΝ PREMIUM AΠO 20 HOST!! http://www.easybytez.com/free2771.html [Hidden Content] [Hidden Content] [Hidden Content]
  15. Είδος Ταινίας: Documentary, Biography, History Πρεμιέρα: 23 October 2010 (USA) Σκηνοθέτης: Shan Nicholson Σενάριο: Shan Nicholson Ηθοποιοί: John Leguizamo Υπότιτλοι: Ελληνικοί Ενσωματωμένοι & Σε Ξεχωριστό Αρχείο Ελληνικός Τίτλος: Μέσα από τα Χαλάσματα Μετάφραση: Ρόζα Καλούδη Διάρκεια: 71' Καταλληλότητα: - encoder: .:Sexmeup:. Πηγή: DOCU.720p.WEB-DL.DD5.1.H264-RARBG Υπόθεση: Στη Νέα Υόρκη της δεκαετίας του 1970, μια ασυνήθιστη μπάντα νεαρών βοηθά να έρθει η ειρήνη στους γεμάτους συμμορίες δρόμους, μέσα από μια νέα κουλτούρα: τη χιπ-χοπ. ΑΝ ΘΕΛΕΤΕ ΝΑ ΣΤΗΡΙΞΕΤΕ ΤΗΝ ΔΟΥΛΕΙΑ ΜΟΥ ΚΑΝΤΕ ΕΥΚΟΛΑ ΚΑΙ ΓΡΗΓΟΡΑ ΛΟΓΑΡΙΑΣΜΟ ΣΤΟ EASYBYTEZ KAI KATEΒΑΣΤΕ ΣΑΝ PREMIUM AΠO 20 HOST!! http://www.easybytez.com/free2771.html [Hidden Content] [Hidden Content] [Hidden Content]
  16. Full Release Name: THE ART OF LOVING STORY OF MICHALINA WISLOCKA (2017) BluRay 1080p 5.1 CH Sexmeup 2.5GB ΕΝΣΩΜΑΤΩΜΕΝΟΙ ΥΠΟΤΙΤΛΟΙ Είδος Ταινίας: Biography, Comedy, Drama Πρεμιέρα: 27 January 2017 (Poland) Σκηνοθέτης: Maria Sadowska Σενάριο: Blazej Dzikowski (associate writer), Artur Golebiowski (story board) Ηθοποιοί: Magdalena Boczarska, Piotr Adamczyk, Karolina Gruszka Υπότιτλοι: Ελληνικοί Ενσωματωμένοι & Σε Ξεχωριστό Αρχείο Ελληνικός Τίτλος: Μιχαλίνα Βισλότσκα: Η Τέχνη του Έρωτα Γνωστό και ως: Sztuka kochania. Historia Michaliny Wislockiej Μετάφραση: Γιάννης Παπαδάκης Διάρκεια: 121' Καταλληλότητα: - encoder: .:Sexmeup:. Πηγή: COMPLETE.BLURAY-LAZERS Υπόθεση: Κατά το κομμουνιστικό καθεστώς, μια Πολωνή γυναικολόγος και σεξολόγος αψηφά τα ταμπού και αγωνίζεται να δημοσιεύσει το πρωτοποριακό βιβλίο της για τον έρωτα και το σεξ. ΑΝ ΘΕΛΕΤΕ ΝΑ ΣΤΗΡΙΞΕΤΕ ΤΗΝ ΔΟΥΛΕΙΑ ΜΟΥ ΚΑΝΤΕ ΕΥΚΟΛΑ ΚΑΙ ΓΡΗΓΟΡΑ ΛΟΓΑΡΙΑΣΜΟ ΣΤΟ EASYBYTEZ KAI KATEΒΑΣΤΕ ΣΑΝ PREMIUM AΠO 20 HOST!! http://www.easybytez.com/free2771.html [Hidden Content] [Hidden Content] [Hidden Content]
  17. Full Release Name: THE ART OF LOVING STORY OF MICHALINA WISLOCKA (2017) BluRay 720p 5.1 CH Sexmeup 1.9 GB ΕΝΣΩΜΑΤΩΜΕΝΟΙ ΥΠΟΤΙΤΛΟΙ Είδος Ταινίας: Biography, Comedy, Drama Πρεμιέρα: 27 January 2017 (Poland) Σκηνοθέτης: Maria Sadowska Σενάριο: Blazej Dzikowski (associate writer), Artur Golebiowski (story board) Ηθοποιοί: Magdalena Boczarska, Piotr Adamczyk, Karolina Gruszka Υπότιτλοι: Ελληνικοί Ενσωματωμένοι & Σε Ξεχωριστό Αρχείο Ελληνικός Τίτλος: Μιχαλίνα Βισλότσκα: Η Τέχνη του Έρωτα Γνωστό και ως: Sztuka kochania. Historia Michaliny Wislockiej Μετάφραση: Γιάννης Παπαδάκης Διάρκεια: 121' Καταλληλότητα: - encoder: .:Sexmeup:. Πηγή: COMPLETE.BLURAY-LAZERS Υπόθεση: Κατά το κομμουνιστικό καθεστώς, μια Πολωνή γυναικολόγος και σεξολόγος αψηφά τα ταμπού και αγωνίζεται να δημοσιεύσει το πρωτοποριακό βιβλίο της για τον έρωτα και το σεξ. ΑΝ ΘΕΛΕΤΕ ΝΑ ΣΤΗΡΙΞΕΤΕ ΤΗΝ ΔΟΥΛΕΙΑ ΜΟΥ ΚΑΝΤΕ ΕΥΚΟΛΑ ΚΑΙ ΓΡΗΓΟΡΑ ΛΟΓΑΡΙΑΣΜΟ ΣΤΟ EASYBYTEZ KAI KATEΒΑΣΤΕ ΣΑΝ PREMIUM AΠO 20 HOST!! http://www.easybytez.com/free2771.html [Hidden Content] [Hidden Content] [Hidden Content]
  18. Είδος Ταινίας: Biography, Fantasy, Horror Πρεμιέρα: 15 February 2018 (Greece) Σκηνοθέτης: Michael Spierig (as The Spierig Brothers), Peter Spierig (as The Spierig Brothers) Σενάριο: Tom Vaughan, Michael Spierig (as The Spierig Brothers) Ηθοποιοί: Helen Mirren, Sarah Snook, Finn Scicluna-O'Prey Υπότιτλοι: Ελληνικοί Ενσωματωμένοι & Σε Ξεχωριστό Αρχείο Ελληνικός Τίτλος: Winchester: Το σπίτι των φαντασμάτων Γνωστό και ως: Winchester: The House That Ghosts Built Μετάφραση: up2spi Διάρκεια: 99' Καταλληλότητα: - encoder: .:Sexmeup:. Πηγή: 1080p.BluRay.x264.DTS-HDC Υπόθεση: Σε μια απομονωμένη έκταση 50 μίλια έξω από το Σαν Φρανσίσκο, βρίσκεται το πλέον στοιχειωμένο σπίτι του κόσμου. Χτισμένο από τη Σάρα Γουίντσεστερ, κληρονόμο της περιουσίας της φαμίλιας, είναι ένα σπίτι δίχως αρχή και τέλος. Κατασκευασμένο υπό μια αδιάκοπη 24ωρη εργασία, επτά ημερών τη βδομάδα και επί δεκαετίες, περιέχει επτά ορόφους και εκατοντάδες δωματίων. Για τους έξω, μοιάζει με ένα τερατώδες μνημείο της τρέλας μιας γυναίκας. Αλλά η Σάρα δεν το χτίζει για τον εαυτό της, ή την ανιψιά της ή τον ευφυή γιατρό Έρικ Πράις, τον οποίο έχει καλέσει μόνιμα στο σπίτι. Χτίζει μια φυλακή, ένα άσυλο για εκατοντάδες οργισμένες ψυχές, και η πιο τρομακτική από αυτές έχει ανοιχτές υποθέσεις με τους Γουίντσεστερ. Ο τρόμος χτίζει. Extras: Η έπαυλη Γουίντσεστερ υπάρχει αληθινά και θεωρείται πράγματι στοιχειωμένη. Λειτουργεί ως τουριστική ατραξιόν για όσους έλκονται από το μεταφυσικό. Η ιστορία της ταινίας είναι σε πολλά σημεία αληθινή, όπως το πρόσωπο της Σάρα Γουίντσεστερ που έχτιζε το σπίτι επί 38 έτη. Οι παραγωγοί προσπάθησαν να γυρίσουν την ταινία εντός του οικήματος, αλλά λίγα από τα πλάνα είναι στην πραγματικότητα εντός του. Κι αυτό λόγω της κακής κατάστασης που βρίσκεται σήμερα η κατασκευή. http://www.imdb.com/title/tt1072748/[/CODE] [IMG=http://c1.staticflickr.com/5/4780/40089464785_599858f97a_o.png] [IMG=http://farm1.staticflickr.com/855/41577244811_70ec1a96b0_o.jpg] [IMG=http://c1.staticflickr.com/1/799/40982563121_97d9e4fb96_o.png] [video=youtube;0Juc2cL26mg]http://www.youtube.com/watch?v=0Juc2cL26mg[/video] [FONT=verdana][B]TEXNIKA XAΡΑΚΤΗΡΙΣΤΙΚΑ [/B][/FONT] [SPOILER] [CODE] General Unique ID : 163595049203449714644380149431282840676 (0x7B1342A9AB403CB6020A5C0C5FFE3464) Complete name : C:\Users\Administrator\Downloads\winchester720micsexmeup\winchester720micsexmeup.mkv Format : Matroska Format version : Version 4 / Version 2 File size : 2.00 GiB Duration : 1 h 39 min Overall bit rate : 2 883 kb/s Movie name : .:Sexmeup:. Quality Uploads - encodes - Encoded date : UTC 2018-04-21 00:09:00 Writing application : mkvmerge v22.0.0 ('At The End Of The World') 64-bit Writing library : libebml v1.3.5 + libmatroska v1.4.8 Video ID : 1 Format : AVC Format/Info : Advanced Video Codec Format profile : [email protected] Format settings : CABAC / 4 Ref Frames Format settings, CABAC : Yes Format settings, RefFrames : 4 frames Codec ID : V_MPEG4/ISO/AVC Duration : 1 h 39 min Bit rate : 2 700 kb/s Width : 1 280 pixels Height : 546 pixels Display aspect ratio : 2.35:1 Frame rate mode : Constant Frame rate : 23.976 (24000/1001) FPS Color space : YUV Chroma subsampling : 4:2:0 Bit depth : 8 bits Scan type : Progressive Bits/(Pixel*Frame) : 0.161 Stream size : 1.85 GiB (92%) Writing library : x264 core 155 r2893 b00bcaf Encoding settings : cabac=1 / ref=1 / deblock=1:0:0 / analyse=0x1:0x111 / me=hex / subme=2 / psy=1 / psy_rd=1.00:0.00 / mixed_ref=0 / me_range=16 / chroma_me=1 / trellis=0 / 8x8dct=0 / cqm=0 / deadzone=21,11 / fast_pskip=1 / chroma_qp_offset=0 / threads=12 / lookahead_threads=4 / sliced_threads=0 / nr=0 / decimate=1 / interlaced=0 / bluray_compat=0 / constrained_intra=0 / bframes=3 / b_pyramid=2 / b_adapt=1 / b_bias=0 / direct=1 / weightb=1 / open_gop=0 / weightp=1 / keyint=240 / keyint_min=24 / scenecut=40 / intra_refresh=0 / rc_lookahead=10 / rc=abr / mbtree=1 / bitrate=2700 / ratetol=1.0 / qcomp=0.60 / qpmin=0 / qpmax=69 / qpstep=4 / vbv_maxrate=20000 / vbv_bufsize=25000 / nal_hrd=none / filler=0 / ip_ratio=1.40 / aq=1:1.00 Default : Yes Forced : No Color range : Limited Color primaries : BT.709 Transfer characteristics : BT.709 Matrix coefficients : BT.709 Audio ID : 2 Format : AC-3 Format/Info : Audio Coding 3 Codec ID : A_AC3 Duration : 1 h 39 min Bit rate mode : Constant Bit rate : 224 kb/s Channel(s) : 6 channels Channel positions : Front: L C R, Side: L R, LFE Sampling rate : 48.0 kHz Frame rate : 31.250 FPS (1536 SPF) Bit depth : 16 bits Compression mode : Lossy Stream size : 159 MiB (8%) Title : Surround Language : English Service kind : Complete Main Default : Yes Forced : No Text ID : 3 Format : UTF-8 Codec ID : S_TEXT/UTF8 Codec ID/Info : UTF-8 Plain Text Duration : 1 h 29 min Bit rate : 78 b/s Count of elements : 734 Stream size : 51.8 KiB (0%) Title : Greek Default : Yes Forced : No [/CODE] [/SPOILER] [IMG=http://c1.staticflickr.com/1/791/39173997270_2f2136d533_o.png] [IMG=http://c1.staticflickr.com/1/789/39174288770_254a09d05d_o.png] [SIZE=3][FONT=verdana][B]ΑΝ ΘΕΛΕΤΕ ΝΑ ΣΤΗΡΙΞΕΤΕ ΤΗΝ ΔΟΥΛΕΙΑ ΜΟΥ ΚΑΝΤΕ ΕΥΚΟΛΑ ΚΑΙ ΓΡΗΓΟΡΑ ΛΟΓΑΡΙΑΣΜΟ ΣΤΟ [COLOR=#ff0000]EASYBYTEZ [/COLOR]KAI KATEΒΑΣΤΕ ΣΑΝ PREMIUM AΠO [COLOR=#ff0000]20 [/COLOR]HOST!! [COLOR=#ff0000]http://www.easybytez.com/free2771.html[/COLOR][/B][/FONT][/SIZE][/CENTER] [Hidden Content] [CENTER][IMG=http://c1.staticflickr.com/1/812/26112042877_04292fbd5e_o.png] [/CENTER] [Hidden Content][CENTER][Hidden Content] [IMG=http://c1.staticflickr.com/5/4786/40089466905_8e4a5d3f42_o.png] [/CENTER]
  19. Είδος Ταινίας: Biography, Fantasy, Horror Πρεμιέρα: 15 February 2018 (Greece) Σκηνοθέτης: Michael Spierig (as The Spierig Brothers), Peter Spierig (as The Spierig Brothers) Σενάριο: Tom Vaughan, Michael Spierig (as The Spierig Brothers) Ηθοποιοί: Helen Mirren, Sarah Snook, Finn Scicluna-O'Prey Υπότιτλοι: Ελληνικοί Ενσωματωμένοι & Σε Ξεχωριστό Αρχείο Ελληνικός Τίτλος: Winchester: Το σπίτι των φαντασμάτων Γνωστό και ως: Winchester: The House That Ghosts Built Μετάφραση: up2spi Διάρκεια: 99' Καταλληλότητα: - encoder: .:Sexmeup:. Πηγή: 1080p.BluRay.x264.DTS-HDC Υπόθεση: Σε μια απομονωμένη έκταση 50 μίλια έξω από το Σαν Φρανσίσκο, βρίσκεται το πλέον στοιχειωμένο σπίτι του κόσμου. Χτισμένο από τη Σάρα Γουίντσεστερ, κληρονόμο της περιουσίας της φαμίλιας, είναι ένα σπίτι δίχως αρχή και τέλος. Κατασκευασμένο υπό μια αδιάκοπη 24ωρη εργασία, επτά ημερών τη βδομάδα και επί δεκαετίες, περιέχει επτά ορόφους και εκατοντάδες δωματίων. Για τους έξω, μοιάζει με ένα τερατώδες μνημείο της τρέλας μιας γυναίκας. Αλλά η Σάρα δεν το χτίζει για τον εαυτό της, ή την ανιψιά της ή τον ευφυή γιατρό Έρικ Πράις, τον οποίο έχει καλέσει μόνιμα στο σπίτι. Χτίζει μια φυλακή, ένα άσυλο για εκατοντάδες οργισμένες ψυχές, και η πιο τρομακτική από αυτές έχει ανοιχτές υποθέσεις με τους Γουίντσεστερ. Ο τρόμος χτίζει. Extras: Η έπαυλη Γουίντσεστερ υπάρχει αληθινά και θεωρείται πράγματι στοιχειωμένη. Λειτουργεί ως τουριστική ατραξιόν για όσους έλκονται από το μεταφυσικό. Η ιστορία της ταινίας είναι σε πολλά σημεία αληθινή, όπως το πρόσωπο της Σάρα Γουίντσεστερ που έχτιζε το σπίτι επί 38 έτη. Οι παραγωγοί προσπάθησαν να γυρίσουν την ταινία εντός του οικήματος, αλλά λίγα από τα πλάνα είναι στην πραγματικότητα εντός του. Κι αυτό λόγω της κακής κατάστασης που βρίσκεται σήμερα η κατασκευή. http://www.imdb.com/title/tt1072748/[/CODE] [IMG=http://c1.staticflickr.com/5/4780/40089464785_599858f97a_o.png] [IMG=http://farm1.staticflickr.com/831/27707475108_45b95db4db_o.jpg] [IMG=http://c1.staticflickr.com/1/799/40982563121_97d9e4fb96_o.png] [video=youtube;0Juc2cL26mg]http://www.youtube.com/watch?v=0Juc2cL26mg[/video] [FONT=verdana][B]TEXNIKA XAΡΑΚΤΗΡΙΣΤΙΚΑ [/B][/FONT] [SPOILER] [CODE] General Unique ID : 117106753233480860298930542296055537271 (0x5819F0B5CFE6F3CE2E168C99C0C5DE77) Complete name : C:\Users\Administrator\Downloads\winchester1080micsexmeup\winchester1080micsexmeup.mkv Format : Matroska Format version : Version 4 / Version 2 File size : 2.49 GiB Duration : 1 h 39 min Overall bit rate : 3 588 kb/s Movie name : .:Sexmeup:. Quality Uploads - encodes - Encoded date : UTC 2018-04-20 23:49:06 Writing application : mkvmerge v22.0.0 ('At The End Of The World') 64-bit Writing library : libebml v1.3.5 + libmatroska v1.4.8 Video ID : 2 Format : AVC Format/Info : Advanced Video Codec Format profile : [email protected] Format settings : CABAC / 4 Ref Frames Format settings, CABAC : Yes Format settings, RefFrames : 4 frames Codec ID : V_MPEG4/ISO/AVC Duration : 1 h 39 min Bit rate : 3 500 kb/s Width : 1 888 pixels Height : 804 pixels Display aspect ratio : 2.35:1 Frame rate mode : Constant Frame rate : 23.976 (24000/1001) FPS Color space : YUV Chroma subsampling : 4:2:0 Bit depth : 8 bits Scan type : Progressive Bits/(Pixel*Frame) : 0.096 Stream size : 2.34 GiB (94%) Writing library : x264 core 155 r2893 b00bcaf Encoding settings : cabac=1 / ref=1 / deblock=1:0:0 / analyse=0x1:0x111 / me=hex / subme=2 / psy=1 / psy_rd=1.00:0.00 / mixed_ref=0 / me_range=16 / chroma_me=1 / trellis=0 / 8x8dct=0 / cqm=0 / deadzone=21,11 / fast_pskip=1 / chroma_qp_offset=0 / threads=12 / lookahead_threads=4 / sliced_threads=0 / nr=0 / decimate=1 / interlaced=0 / bluray_compat=0 / constrained_intra=0 / bframes=3 / b_pyramid=2 / b_adapt=1 / b_bias=0 / direct=1 / weightb=1 / open_gop=0 / weightp=1 / keyint=240 / keyint_min=24 / scenecut=40 / intra_refresh=0 / rc_lookahead=10 / rc=abr / mbtree=1 / bitrate=3500 / ratetol=1.0 / qcomp=0.60 / qpmin=0 / qpmax=69 / qpstep=4 / vbv_maxrate=20000 / vbv_bufsize=25000 / nal_hrd=none / filler=0 / ip_ratio=1.40 / aq=1:1.00 Default : Yes Forced : No Color range : Limited Color primaries : BT.709 Transfer characteristics : BT.709 Matrix coefficients : BT.709 Audio ID : 3 Format : AC-3 Format/Info : Audio Coding 3 Codec ID : A_AC3 Duration : 1 h 39 min Bit rate mode : Constant Bit rate : 224 kb/s Channel(s) : 6 channels Channel positions : Front: L C R, Side: L R, LFE Sampling rate : 48.0 kHz Frame rate : 31.250 FPS (1536 SPF) Bit depth : 16 bits Compression mode : Lossy Stream size : 159 MiB (6%) Title : Surround Language : English Service kind : Complete Main Default : Yes Forced : No Text ID : 1 Format : UTF-8 Codec ID : S_TEXT/UTF8 Codec ID/Info : UTF-8 Plain Text Duration : 1 h 29 min Bit rate : 78 b/s Count of elements : 734 Stream size : 51.8 KiB (0%) Title : Greek Default : Yes Forced : No [/CODE] [/SPOILER] [IMG=http://c1.staticflickr.com/1/791/39173997270_2f2136d533_o.png] [IMG=http://c1.staticflickr.com/1/789/39174288770_254a09d05d_o.png] [SIZE=3][FONT=verdana][B]ΑΝ ΘΕΛΕΤΕ ΝΑ ΣΤΗΡΙΞΕΤΕ ΤΗΝ ΔΟΥΛΕΙΑ ΜΟΥ ΚΑΝΤΕ ΕΥΚΟΛΑ ΚΑΙ ΓΡΗΓΟΡΑ ΛΟΓΑΡΙΑΣΜΟ ΣΤΟ [COLOR=#ff0000]EASYBYTEZ [/COLOR]KAI KATEΒΑΣΤΕ ΣΑΝ PREMIUM AΠO [COLOR=#ff0000]20 [/COLOR]HOST!! [COLOR=#ff0000]http://www.easybytez.com/free2771.html[/COLOR][/B][/FONT][/SIZE][/CENTER] [Hidden Content] [CENTER][IMG=http://c1.staticflickr.com/1/812/26112042877_04292fbd5e_o.png] [/CENTER] [Hidden Content][CENTER][Hidden Content] [IMG=http://c1.staticflickr.com/5/4786/40089466905_8e4a5d3f42_o.png] [/CENTER]
  20. Είδος Ταινίας: Biography, Fantasy, Horror Πρεμιέρα: 15 February 2018 (Greece) Σκηνοθέτης: Michael Spierig (as The Spierig Brothers), Peter Spierig (as The Spierig Brothers) Σενάριο: Tom Vaughan, Michael Spierig (as The Spierig Brothers) Ηθοποιοί: Helen Mirren, Sarah Snook, Finn Scicluna-O'Prey Υπότιτλοι: Ελληνικοί Ενσωματωμένοι & Σε Ξεχωριστό Αρχείο Ελληνικός Τίτλος: Winchester: Το σπίτι των φαντασμάτων Γνωστό και ως: Winchester: The House That Ghosts Built Μετάφραση: up2spi Διάρκεια: 99' Καταλληλότητα: - encoder: .:Sexmeup:. Πηγή: 1080p.WEB-DL.H264.AC3-EVO Υπόθεση: Σε μια απομονωμένη έκταση 50 μίλια έξω από το Σαν Φρανσίσκο, βρίσκεται το πλέον στοιχειωμένο σπίτι του κόσμου. Χτισμένο από τη Σάρα Γουίντσεστερ, κληρονόμο της περιουσίας της φαμίλιας, είναι ένα σπίτι δίχως αρχή και τέλος. Κατασκευασμένο υπό μια αδιάκοπη 24ωρη εργασία, επτά ημερών τη βδομάδα και επί δεκαετίες, περιέχει επτά ορόφους και εκατοντάδες δωματίων. Για τους έξω, μοιάζει με ένα τερατώδες μνημείο της τρέλας μιας γυναίκας. Αλλά η Σάρα δεν το χτίζει για τον εαυτό της, ή την ανιψιά της ή τον ευφυή γιατρό Έρικ Πράις, τον οποίο έχει καλέσει μόνιμα στο σπίτι. Χτίζει μια φυλακή, ένα άσυλο για εκατοντάδες οργισμένες ψυχές, και η πιο τρομακτική από αυτές έχει ανοιχτές υποθέσεις με τους Γουίντσεστερ. Ο τρόμος χτίζει. Extras: Η έπαυλη Γουίντσεστερ υπάρχει αληθινά και θεωρείται πράγματι στοιχειωμένη. Λειτουργεί ως τουριστική ατραξιόν για όσους έλκονται από το μεταφυσικό. Η ιστορία της ταινίας είναι σε πολλά σημεία αληθινή, όπως το πρόσωπο της Σάρα Γουίντσεστερ που έχτιζε το σπίτι επί 38 έτη. Οι παραγωγοί προσπάθησαν να γυρίσουν την ταινία εντός του οικήματος, αλλά λίγα από τα πλάνα είναι στην πραγματικότητα εντός του. Κι αυτό λόγω της κακής κατάστασης που βρίσκεται σήμερα η κατασκευή. http://www.imdb.com/title/tt1072748/[/CODE] [IMG=http://c1.staticflickr.com/5/4780/40089464785_599858f97a_o.png] [IMG=http://farm1.staticflickr.com/942/41516392361_5a2fdaccda_o.jpg] [IMG=http://c1.staticflickr.com/1/799/40982563121_97d9e4fb96_o.png] [video=youtube;0Juc2cL26mg]http://www.youtube.com/watch?v=0Juc2cL26mg[/video] [FONT=verdana][B]TEXNIKA XAΡΑΚΤΗΡΙΣΤΙΚΑ [/B][/FONT] [SPOILER] [CODE] General Unique ID : 253578908341515063364457963393833766410 (0xBEC58572DE2E7D3C0D493BD678280E0A) Complete name : C:\Users\Administrator\Downloads\winchester1080websexmeup\winchester1080websexmeup.mkv Format : Matroska Format version : Version 4 / Version 2 File size : 2.43 GiB Duration : 1 h 39 min Overall bit rate : 3 496 kb/s Movie name : .:Sexmeup:. Quality Uploads - encodes - Encoded date : UTC 2018-04-18 00:45:08 Writing application : mkvmerge v22.0.0 ('At The End Of The World') 64-bit Writing library : libebml v1.3.5 + libmatroska v1.4.8 Video ID : 1 Format : AVC Format/Info : Advanced Video Codec Format profile : [email protected] Format settings : CABAC / 4 Ref Frames Format settings, CABAC : Yes Format settings, RefFrames : 4 frames Codec ID : V_MPEG4/ISO/AVC Duration : 1 h 39 min Bit rate : 3 400 kb/s Width : 1 908 pixels Height : 792 pixels Display aspect ratio : 2.40:1 Frame rate mode : Constant Frame rate : 23.976 (24000/1001) FPS Color space : YUV Chroma subsampling : 4:2:0 Bit depth : 8 bits Scan type : Progressive Bits/(Pixel*Frame) : 0.094 Stream size : 2.27 GiB (94%) Writing library : x264 core 148 r2708 86b7198 Encoding settings : cabac=1 / ref=1 / deblock=1:0:0 / analyse=0x3:0x113 / me=hex / subme=2 / psy=1 / psy_rd=1.00:0.00 / mixed_ref=0 / me_range=16 / chroma_me=1 / trellis=0 / 8x8dct=1 / cqm=0 / deadzone=21,11 / fast_pskip=1 / chroma_qp_offset=0 / threads=24 / lookahead_threads=6 / sliced_threads=0 / nr=0 / decimate=1 / interlaced=0 / bluray_compat=0 / constrained_intra=0 / bframes=3 / b_pyramid=2 / b_adapt=1 / b_bias=0 / direct=1 / weightb=1 / open_gop=0 / weightp=1 / keyint=240 / keyint_min=24 / scenecut=40 / intra_refresh=0 / rc_lookahead=10 / rc=abr / mbtree=1 / bitrate=3400 / ratetol=1.0 / qcomp=0.60 / qpmin=0 / qpmax=69 / qpstep=4 / ip_ratio=1.40 / aq=1:1.00 Default : Yes Forced : No Color range : Limited Color primaries : BT.709 Transfer characteristics : BT.709 Matrix coefficients : BT.709 Audio ID : 2 Format : AC-3 Format/Info : Audio Coding 3 Codec ID : A_AC3 Duration : 1 h 39 min Bit rate mode : Constant Bit rate : 224 kb/s Channel(s) : 6 channels Channel positions : Front: L C R, Side: L R, LFE Sampling rate : 48.0 kHz Frame rate : 31.250 FPS (1536 SPF) Bit depth : 16 bits Compression mode : Lossy Delay relative to video : -47 ms Stream size : 159 MiB (6%) Title : Surround Language : English Service kind : Complete Main Default : Yes Forced : No Text ID : 3 Format : UTF-8 Codec ID : S_TEXT/UTF8 Codec ID/Info : UTF-8 Plain Text Duration : 1 h 29 min Bit rate : 78 b/s Count of elements : 734 Stream size : 51.8 KiB (0%) Title : Greek Default : Yes Forced : No [/CODE] [/SPOILER] [IMG=http://c1.staticflickr.com/1/791/39173997270_2f2136d533_o.png] [IMG=http://c1.staticflickr.com/1/789/39174288770_254a09d05d_o.png] [SIZE=3][FONT=verdana][B]ΑΝ ΘΕΛΕΤΕ ΝΑ ΣΤΗΡΙΞΕΤΕ ΤΗΝ ΔΟΥΛΕΙΑ ΜΟΥ ΚΑΝΤΕ ΕΥΚΟΛΑ ΚΑΙ ΓΡΗΓΟΡΑ ΛΟΓΑΡΙΑΣΜΟ ΣΤΟ [COLOR=#ff0000]EASYBYTEZ [/COLOR]KAI KATEΒΑΣΤΕ ΣΑΝ PREMIUM AΠO [COLOR=#ff0000]20 [/COLOR]HOST!! [COLOR=#ff0000]http://www.easybytez.com/free2771.html[/COLOR][/B][/FONT][/SIZE][/CENTER] [Hidden Content] [CENTER][IMG=http://c1.staticflickr.com/1/812/26112042877_04292fbd5e_o.png] [/CENTER] [Hidden Content][CENTER][Hidden Content] [IMG=http://c1.staticflickr.com/5/4786/40089466905_8e4a5d3f42_o.png] [/CENTER]
  21. Είδος Ταινίας: Biography, Fantasy, Horror Πρεμιέρα: 15 February 2018 (Greece) Σκηνοθέτης: Michael Spierig (as The Spierig Brothers), Peter Spierig (as The Spierig Brothers) Σενάριο: Tom Vaughan, Michael Spierig (as The Spierig Brothers) Ηθοποιοί: Helen Mirren, Sarah Snook, Finn Scicluna-O'Prey Υπότιτλοι: Ελληνικοί Ενσωματωμένοι & Σε Ξεχωριστό Αρχείο Ελληνικός Τίτλος: Winchester: Το σπίτι των φαντασμάτων Γνωστό και ως: Winchester: The House That Ghosts Built Μετάφραση: up2spi Διάρκεια: 99' Καταλληλότητα: - encoder: .:Sexmeup:. Πηγή: 1080p.WEB-DL.H264.AC3-EVO Υπόθεση: Σε μια απομονωμένη έκταση 50 μίλια έξω από το Σαν Φρανσίσκο, βρίσκεται το πλέον στοιχειωμένο σπίτι του κόσμου. Χτισμένο από τη Σάρα Γουίντσεστερ, κληρονόμο της περιουσίας της φαμίλιας, είναι ένα σπίτι δίχως αρχή και τέλος. Κατασκευασμένο υπό μια αδιάκοπη 24ωρη εργασία, επτά ημερών τη βδομάδα και επί δεκαετίες, περιέχει επτά ορόφους και εκατοντάδες δωματίων. Για τους έξω, μοιάζει με ένα τερατώδες μνημείο της τρέλας μιας γυναίκας. Αλλά η Σάρα δεν το χτίζει για τον εαυτό της, ή την ανιψιά της ή τον ευφυή γιατρό Έρικ Πράις, τον οποίο έχει καλέσει μόνιμα στο σπίτι. Χτίζει μια φυλακή, ένα άσυλο για εκατοντάδες οργισμένες ψυχές, και η πιο τρομακτική από αυτές έχει ανοιχτές υποθέσεις με τους Γουίντσεστερ. Ο τρόμος χτίζει. Extras: Η έπαυλη Γουίντσεστερ υπάρχει αληθινά και θεωρείται πράγματι στοιχειωμένη. Λειτουργεί ως τουριστική ατραξιόν για όσους έλκονται από το μεταφυσικό. Η ιστορία της ταινίας είναι σε πολλά σημεία αληθινή, όπως το πρόσωπο της Σάρα Γουίντσεστερ που έχτιζε το σπίτι επί 38 έτη. Οι παραγωγοί προσπάθησαν να γυρίσουν την ταινία εντός του οικήματος, αλλά λίγα από τα πλάνα είναι στην πραγματικότητα εντός του. Κι αυτό λόγω της κακής κατάστασης που βρίσκεται σήμερα η κατασκευή. http://www.imdb.com/title/tt1072748/[/CODE] [IMG=http://c1.staticflickr.com/5/4780/40089464785_599858f97a_o.png] [IMG=http://farm1.staticflickr.com/784/39707889580_45b352ebff_o.jpg] [IMG=http://c1.staticflickr.com/1/799/40982563121_97d9e4fb96_o.png] [video=youtube;0Juc2cL26mg]http://www.youtube.com/watch?v=0Juc2cL26mg[/video] [FONT=verdana][B]TEXNIKA XAΡΑΚΤΗΡΙΣΤΙΚΑ [/B][/FONT] [SPOILER] [CODE] General Unique ID : 231552367915516164303442425503213664261 (0xAE335D28F55CB1565728B187E87BB805) Complete name : C:\Users\Administrator\Downloads\winchester720websexmeup\winchester720websexmeup.mkv Format : Matroska Format version : Version 4 / Version 2 File size : 1.87 GiB Duration : 1 h 39 min Overall bit rate : 2 684 kb/s Movie name : .:Sexmeup:. Quality Uploads - encodes - Encoded date : UTC 2018-04-18 00:57:58 Writing application : mkvmerge v22.0.0 ('At The End Of The World') 64-bit Writing library : libebml v1.3.5 + libmatroska v1.4.8 Video ID : 1 Format : AVC Format/Info : Advanced Video Codec Format profile : [email protected] Format settings : CABAC / 4 Ref Frames Format settings, CABAC : Yes Format settings, RefFrames : 4 frames Codec ID : V_MPEG4/ISO/AVC Duration : 1 h 39 min Bit rate : 2 500 kb/s Width : 1 280 pixels Height : 534 pixels Display aspect ratio : 2.40:1 Frame rate mode : Constant Frame rate : 23.976 (24000/1001) FPS Color space : YUV Chroma subsampling : 4:2:0 Bit depth : 8 bits Scan type : Progressive Bits/(Pixel*Frame) : 0.153 Stream size : 1.71 GiB (92%) Writing library : x264 core 148 r2708 86b7198 Encoding settings : cabac=1 / ref=1 / deblock=1:0:0 / analyse=0x3:0x113 / me=hex / subme=2 / psy=1 / psy_rd=1.00:0.00 / mixed_ref=0 / me_range=16 / chroma_me=1 / trellis=0 / 8x8dct=1 / cqm=0 / deadzone=21,11 / fast_pskip=1 / chroma_qp_offset=0 / threads=17 / lookahead_threads=4 / sliced_threads=0 / nr=0 / decimate=1 / interlaced=0 / bluray_compat=0 / constrained_intra=0 / bframes=3 / b_pyramid=2 / b_adapt=1 / b_bias=0 / direct=1 / weightb=1 / open_gop=0 / weightp=1 / keyint=240 / keyint_min=24 / scenecut=40 / intra_refresh=0 / rc_lookahead=10 / rc=abr / mbtree=1 / bitrate=2500 / ratetol=1.0 / qcomp=0.60 / qpmin=0 / qpmax=69 / qpstep=4 / ip_ratio=1.40 / aq=1:1.00 Default : Yes Forced : No Color range : Limited Color primaries : BT.709 Transfer characteristics : BT.709 Matrix coefficients : BT.709 Audio ID : 2 Format : AC-3 Format/Info : Audio Coding 3 Codec ID : A_AC3 Duration : 1 h 39 min Bit rate mode : Constant Bit rate : 224 kb/s Channel(s) : 6 channels Channel positions : Front: L C R, Side: L R, LFE Sampling rate : 48.0 kHz Frame rate : 31.250 FPS (1536 SPF) Bit depth : 16 bits Compression mode : Lossy Delay relative to video : -52 ms Stream size : 159 MiB (8%) Title : Surround Language : English Service kind : Complete Main Default : Yes Forced : No Text ID : 3 Format : UTF-8 Codec ID : S_TEXT/UTF8 Codec ID/Info : UTF-8 Plain Text Duration : 1 h 29 min Bit rate : 78 b/s Count of elements : 734 Stream size : 51.8 KiB (0%) Title : Greek Default : Yes Forced : No [/CODE] [/SPOILER] [IMG=http://c1.staticflickr.com/1/791/39173997270_2f2136d533_o.png] [IMG=http://c1.staticflickr.com/1/789/39174288770_254a09d05d_o.png] [SIZE=3][FONT=verdana][B]ΑΝ ΘΕΛΕΤΕ ΝΑ ΣΤΗΡΙΞΕΤΕ ΤΗΝ ΔΟΥΛΕΙΑ ΜΟΥ ΚΑΝΤΕ ΕΥΚΟΛΑ ΚΑΙ ΓΡΗΓΟΡΑ ΛΟΓΑΡΙΑΣΜΟ ΣΤΟ [COLOR=#ff0000]EASYBYTEZ [/COLOR]KAI KATEΒΑΣΤΕ ΣΑΝ PREMIUM AΠO [COLOR=#ff0000]20 [/COLOR]HOST!! [COLOR=#ff0000]http://www.easybytez.com/free2771.html[/COLOR][/B][/FONT][/SIZE][/CENTER] [Hidden Content] [CENTER][IMG=http://c1.staticflickr.com/1/812/26112042877_04292fbd5e_o.png] [/CENTER] [Hidden Content][CENTER][Hidden Content] [IMG=http://c1.staticflickr.com/5/4786/40089466905_8e4a5d3f42_o.png] [/CENTER]
  22. Είδος Ταινίας: Biography, Crime, Drama Πρεμιέρα: 21 December 2017 (Greece) Σκηνοθέτης: Ridley Scott Σενάριο: David Scarpa, John Pearson (based on the book by) Ηθοποιοί: Michelle Williams, Christopher Plummer, Mark Wahlberg Υπότιτλοι: Ελληνικοί Ενσωματωμένοι & Σε Ξεχωριστό Αρχείο Ελληνικός Τίτλος: Όλα τα λεφτά του κόσμου Μετάφραση: AmastriS Διάρκεια: 132' Καταλληλότητα: - encoder: .:Sexmeup:. Πηγή: 1080p.BluRay.x264-DRONES Υπόθεση: Ρώμη, 1973. Κουκουλοφόροι απαγάγουν ένα 16χρονο αγόρι, τον Τζον Πολ. Ο Τζον Πολ δεν είναι ένας τυχαίος έφηβος, αφού είναι εγγονός του Τζον Πολ Γκέτι, του πιο πλούσιου ανθρώπου στον κόσμο. Ένας πανίσχυρος, δισεκατομμυριούχος μεγιστάνας πετρελαίου, απίστευτα μίζερος, απρόσωπος και τσιγγούνης, ο οποίος αρνείται ευθαρσώς και δημοσίως να πληρώσει τα λύτρα στους απαγωγείς για να σώσει τη ζωή του αγαπημένου του εγγονού. Η αφοσιωμένη και δυναμική μητέρα του Τζον Πολ, η Γκέιλ, παρά τις μάταιες προσπάθειες της να αλλάξει την αμείλικτη στάση του Γκέτι, καλείται να σηκώσει μόνη της το βάρος της απαγωγής και να κάνει τα αδύνατα δυνατά για να σώσει τον γιο της. Σε μια μάχη ενάντια στον χρόνο και τους απαγωγείς να γίνονται ολοένα και περισσότερο πιεστικοί και απειλητικοί για τη ζωή του Πολ, η Γκέιλ αποφασίζει να συμμαχήσει με τον αινιγματικό σωματοφύλακα του Γκέτι, τον Φλέτσερ Τσέις, αναλαμβάνοντας πλήρως τη διάσωση του γιου της. Εκείνος έκανε περιουσία. Οι υπόλοιποι πλήρωσαν το τίμημα. Extras: Βασίζεται σε ιστορικά γεγονότα και πρόσωπα. Η ταινία ολοκλήρωσε κανονικά τα γυρίσματα της με τον Kevin Spacey στον ρόλο του Πολ Γκέτι. Μετά όμως από το ξέσπασμα των σοβαρών κατηγοριών επί του ηθοποιού, ο Ridley Scott αποφάσισε να ξαναγυρίσει τις σκηνές του με τον Christopher Plummer στη θέση του. Όταν ο σχεδιασμός ήταν στις αρχές του, η Angelina Jolie προσεγγίσθηκε για τον όλο της Γκέιλ, αλλά τον απέρριψε. Το ίδιο έπραξε μετά και η Natalie Portman, αλλά προβάλλοντας ως λόγο τη γέννηση του δεύτερου παιδιού της. Ο δε ρόλος του Πολ Γκέτι προσφέρθηκε αρχικά στον Jack Nicholson. http://www.imdb.com/title/tt5294550/ [video=youtube;KXHrCBkIxQQ] TEXNIKA XAΡΑΚΤΗΡΙΣΤΙΚΑ ΑΝ ΘΕΛΕΤΕ ΝΑ ΣΤΗΡΙΞΕΤΕ ΤΗΝ ΔΟΥΛΕΙΑ ΜΟΥ ΚΑΝΤΕ ΕΥΚΟΛΑ ΚΑΙ ΓΡΗΓΟΡΑ ΛΟΓΑΡΙΑΣΜΟ ΣΤΟ EASYBYTEZ KAI KATEΒΑΣΤΕ ΣΑΝ PREMIUM AΠO 20 HOST!! http://www.easybytez.com/free2771.html [Hidden Content] [Hidden Content] [Hidden Content]
  23. Είδος Ταινίας: Biography, Crime, Drama Πρεμιέρα: 21 December 2017 (Greece) Σκηνοθέτης: Ridley Scott Σενάριο: David Scarpa, John Pearson (based on the book by) Ηθοποιοί: Michelle Williams, Christopher Plummer, Mark Wahlberg Υπότιτλοι: Ελληνικοί Ενσωματωμένοι & Σε Ξεχωριστό Αρχείο Ελληνικός Τίτλος: Όλα τα λεφτά του κόσμου Μετάφραση: AmastriS Διάρκεια: 132' Καταλληλότητα: - encoder: .:Sexmeup:. Πηγή: 1080p.BluRay.x264-DRONES Υπόθεση: Ρώμη, 1973. Κουκουλοφόροι απαγάγουν ένα 16χρονο αγόρι, τον Τζον Πολ. Ο Τζον Πολ δεν είναι ένας τυχαίος έφηβος, αφού είναι εγγονός του Τζον Πολ Γκέτι, του πιο πλούσιου ανθρώπου στον κόσμο. Ένας πανίσχυρος, δισεκατομμυριούχος μεγιστάνας πετρελαίου, απίστευτα μίζερος, απρόσωπος και τσιγγούνης, ο οποίος αρνείται ευθαρσώς και δημοσίως να πληρώσει τα λύτρα στους απαγωγείς για να σώσει τη ζωή του αγαπημένου του εγγονού. Η αφοσιωμένη και δυναμική μητέρα του Τζον Πολ, η Γκέιλ, παρά τις μάταιες προσπάθειες της να αλλάξει την αμείλικτη στάση του Γκέτι, καλείται να σηκώσει μόνη της το βάρος της απαγωγής και να κάνει τα αδύνατα δυνατά για να σώσει τον γιο της. Σε μια μάχη ενάντια στον χρόνο και τους απαγωγείς να γίνονται ολοένα και περισσότερο πιεστικοί και απειλητικοί για τη ζωή του Πολ, η Γκέιλ αποφασίζει να συμμαχήσει με τον αινιγματικό σωματοφύλακα του Γκέτι, τον Φλέτσερ Τσέις, αναλαμβάνοντας πλήρως τη διάσωση του γιου της. Εκείνος έκανε περιουσία. Οι υπόλοιποι πλήρωσαν το τίμημα. Extras: Βασίζεται σε ιστορικά γεγονότα και πρόσωπα. Η ταινία ολοκλήρωσε κανονικά τα γυρίσματα της με τον Kevin Spacey στον ρόλο του Πολ Γκέτι. Μετά όμως από το ξέσπασμα των σοβαρών κατηγοριών επί του ηθοποιού, ο Ridley Scott αποφάσισε να ξαναγυρίσει τις σκηνές του με τον Christopher Plummer στη θέση του. Όταν ο σχεδιασμός ήταν στις αρχές του, η Angelina Jolie προσεγγίσθηκε για τον όλο της Γκέιλ, αλλά τον απέρριψε. Το ίδιο έπραξε μετά και η Natalie Portman, αλλά προβάλλοντας ως λόγο τη γέννηση του δεύτερου παιδιού της. Ο δε ρόλος του Πολ Γκέτι προσφέρθηκε αρχικά στον Jack Nicholson. http://www.imdb.com/title/tt5294550/ [video=youtube;KXHrCBkIxQQ] TEXNIKA XAΡΑΚΤΗΡΙΣΤΙΚΑ ΑΝ ΘΕΛΕΤΕ ΝΑ ΣΤΗΡΙΞΕΤΕ ΤΗΝ ΔΟΥΛΕΙΑ ΜΟΥ ΚΑΝΤΕ ΕΥΚΟΛΑ ΚΑΙ ΓΡΗΓΟΡΑ ΛΟΓΑΡΙΑΣΜΟ ΣΤΟ EASYBYTEZ KAI KATEΒΑΣΤΕ ΣΑΝ PREMIUM AΠO 20 HOST!! http://www.easybytez.com/free2771.html
  24. Είδος Ταινίας: Biography Πρεμιέρα: 26 April 2017 (France) Σκηνοθέτης: Etienne Comar Σενάριο: Etienne Comar (screenplay), Alexis Salatko (novel) Ηθοποιοί: Reda Kateb, Cecile De France, Bea Palya Υπότιτλοι: Ελληνικοί Ενσωματωμένοι & Σε Ξεχωριστό Αρχείο Γνωστό και ως: Django Melodies Μετάφραση: gianis76 Διάρκεια: 117' Καταλληλότητα: - encoder: .:Sexmeup:. Πηγή: FRENCH.1080p.BluRay.x264-LOST Υπόθεση: Βρισκόμαστε στο Παρίσι το 1943. Κατά τη διάρκεια της γερμανικής κατοχής, ο τσιγγάνος Τζάνγκο Ράινχαρτ, μια μοναδική προσωπικότητα της εποχής και βιρτουόζος της κιθάρας, βρίσκεται στο απόγειο της καριέρας του. Κάθε βράδυ το Παρίσι χορεύει με τη σουίνγκ μουσική του στα Φολί Μπερζέρ, ενώ την ίδια στιγμή οι τσιγγάνοι της Ευρώπης καταδιώκονται και εξολοθρεύονται από τους ναζί. Όταν η γερμανική προπαγάνδα τού ζητάει να πάει στο Βερολίνο για συναυλίες, διαισθάνεται τον κίνδυνο και αποφασίζει να δραπετεύσει στην Ελβετία με τη βοήθεια της γαλλίδας φίλης του, Λουίζ ντε Κλερκ. Ταξιδεύει στη λίμνη της Γενεύης με την έγκυο σύζυγό του και τη μητέρα του. Αλλά η απόδραση τους είναι πιο πολύπλοκη απ` ό,τι περίμενε. Οι τρεις τους βρίσκονται στη δίνη του Β` Παγκοσμίου Πολέμου. Κατά τη διάρκεια αυτής της καθοριστικής περιόδου, ο Τζάνγκο Ράινχαρτ παρέμεινε ένας ξεχωριστός μουσικός και συνθέτης που αντιστάθηκε με την τέχνη και το χιούμορ του, αναζητώντας συνεχώς δρόμους προς τη μουσική τελειότητα. http://www.imdb.com/title/tt6247936/ [video=youtube;7NBHBs_RikI] TEXNIKA XAΡΑΚΤΗΡΙΣΤΙΚΑ ΑΝ ΘΕΛΕΤΕ ΝΑ ΣΤΗΡΙΞΕΤΕ ΤΗΝ ΔΟΥΛΕΙΑ ΜΟΥ ΚΑΝΤΕ ΕΥΚΟΛΑ ΚΑΙ ΓΡΗΓΟΡΑ ΛΟΓΑΡΙΑΣΜΟ ΣΤΟ EASYBYTEZ KAI KATEΒΑΣΤΕ ΣΑΝ PREMIUM AΠO 20 HOST!! http://www.easybytez.com/free2771.html
×