Μετάβαση στο περιεχόμενο

Αναζήτηση στην κοινότητα

Εμφάνιση αποτελεσμάτων για τις ετικέτες 'drama'.

  • Αναζήτηση με βάση τις ετικέτες

    Πληκτρολογήστε τις ετικέτες και χωρίστε τες με κόμμα.
  • Αναζήτηση με βάση τον συγγραφέα

Τύπος περιεχομένου


Ενότητες

  • ELLINOMANIA
    • Ανακοινώσεις - Announcements
    • Κανονισμοί - Rules
    • Τεχνική Υποστήριξη - Help Section
    • Ψηφοφορίες
    • Βοηθήματα προς τα μέλη
    • Ellinomania Διαγωνισμοί
    • Προτάσεις/Παράπονα
  • Το στέκι μας - Our chat place
    • Ellinomania Café
    • Χώρος Υποδοχής - Reception Place
    • Αθλητισμός - Sports Chat
    • Η/Y, internet
    • Το στέκι των φοιτητών/μαθητών
    • Εορτές - Γενέθλια
    • Νέα και Ειδήσεις από την Ελλάδα και τον Κόσμο
    • Funny Place
    • Η γωνιά του καλλιτέχνη - Artist's Corner
    • Μπουκιά & Συχώριο
    • Το στέκι των ζωοφίλων
    • Προγνωστικά Στοιχήματος
    • Μικρές Αγγελίες - Small Announcements
    • Ο χώρος του μεταφυσικού
  • Greek Music - Direct Download
    • Promo Songs
    • Νέες Ελληνικές Κυκλοφορίες/New Greek Releases 2013 - 2018
    • Νέες Κυκλοφορίες Περιοδικών/Εφημερίδων
    • Ελληνικές Συλλογές/Greek Collections
    • Greek Remixes & DJ Club
    • Δισκογραφίες - discographies
    • Soundtracks
    • Παλαιότερες Ελληνικές Κυκλοφορίες - Older Greek Releases
    • Παραδοσιακά - Greek Traditional Music
    • Παλιά/Σπάνια Λαϊκά & Ρεμπέτικα - Old & Rare
    • Εορταστική μουσική - Music for celebrations
    • Μουσική για Παιδιά - Music For Children
    • Μουσική Σάτυρα
    • Βυζαντινή & Εκκλησιαστική Μουσική
    • Αναζητήσεις - Request
  • Ελληνική Μουσική - Greek Music
  • International Music - Direct Download
    • Ξένα Promos
    • Ξένη Μουσική - Foreign Music
    • Ξένα Mixes / Remixes
    • Ξένες Συλλογές/Foreign Collections
    • Box Sets - Complete Collections
    • Ξένες Δισκογραφίες
    • Ξένα Soundtracks
    • Κλασσική μουσική - Classical music
  • Direct Download - Ταινίες,Σειρές
    • Ελληνικές Ταινίες - Greek Movies
    • Ξένες Ταινίες - Foreign Movies
    • Ταινίες Υψηλής Ευκρίνειας - High Definition Movies
    • Ελληνικές Σειρές - Greek Series
    • Ξένες Σειρές - Foreign Series
    • Ντοκιμαντέρ - Documentaries
    • Κινούμενα σχέδια - Cartoons
    • Αθλητικά γεγονότα - Sport events
    • Trailers
    • Αναζήτηση ταινιών
  • Ταινίες - Movies
  • Direct Download - Προγράμματα
    • Προγράμματα
    • Αναζήτηση προγραμμάτων
  • Παιχνίδια - Games
  • Direct Download - Παιχνίδια
    • Παιχνίδια
    • Games Trailers
    • Αναζήτηση Παιχνιδιών
  • Direct Download - Διάφορα
    • Video Clips και Συναυλίες
    • Μουσικά DVD και TV Show
    • Διάφορα Videos
    • Video Tutorials
    • E-Books
    • Κινητή τηλεφωνία
  • Golden/Silver Members Area
    • Golden Member Music Paradise Area - Ελληνικές Κυκλοφορίες CD σε υψηλή ποιότητα
    • Φιλμογραφίες - Συλλογές γνωστών ηθοποιών
    • Τρισδιάστατες Ταινίες - 3D Movies
    • Hacks and Tools
    • Compact Disc Club
    • Delta Club
    • Café del Mar
    • Αdult Zone
    • Ειδική Αναζήτηση / Ειδικό Request για ληγμένους συνδέσμους
    • Συζήτηση Golden/Silver μελών
  • Dead Links
    • Dead Links
  • Ellinomania Team
    • Ellinomania Team
  • Trashcan
    • Trashcan
  • Παλαιότερες Ξένες Σειρές
  • Εγγραφή Εδώ - Register Here
  • CLICK HERE TO RESEND VALIDATION EMAIL
  • ΔΕΝ ΜΠΟΡΩ ΝΑ ΕΝΕΡΓΟΠΟΙΗΣΩ ΤΟ ACCOUNT ΜΟΥ
  • Δοκιμαστικό Forum Για Uploaders - Μόνο Ταινίες
  • Δοκιμαστικό Forum Για Uploaders - Μόνο Ξένα CD's
  • Δοκιμαστικό Forum Για Uploaders - Μόνο Eλληνικά CD's
  • Δοκιμαστικό Forum Για Uploaders - Μόνο PC Games
  • Δοκιμαστικό Forum Για Uploaders - Μόνο Προγράμματα
  • Δοκιμαστικό Forum Για Uploaders - Μόνο Βιβλία/περιοδικά

Ημερολόγια

  • Community Calendar

Found 1.965 results

  1. Είδος Ταινίας: Drama Πρεμιέρα: 23 July 2015 (Colombia) Σκηνοθέτης: Cesar Augusto Acevedo Σενάριο: Cesar Augusto Acevedo Ηθοποιοί: Haimer Leal, Hilda Ruiz, Edison Raigosa Υπότιτλοι: Ελληνικοί Ενσωματωμένοι & Σε Ξεχωριστό Αρχείο Ελληνικός Τίτλος: Η Γη και η Σκιά Γνωστό και ως: La tierra y la sombra Μετάφραση: MedievalGuy Διάρκεια: 97' Καταλληλότητα: - encoder: .:Sexmeup:. Πηγή: 720p.2015.WEB-DL.x264.HORiZON Υπόθεση: Με φόντο μια φυτεία ζαχαροκάλαμου στην Κολομβία, ένας εργάτης επιστρέφει στο σπίτι του ύστερα από πολλά χρόνια. Επανασυνδέεται με την πρώην γυναίκα του και τον άρρωστο γιο του, και γνωρίζει για πρώτη φορά τη νύφη και τον εγγονό του. Extras: Χρυσή Κάμερα στο φεστιβάλ των Κανών. ΑΝ ΘΕΛΕΤΕ ΝΑ ΣΤΗΡΙΞΕΤΕ ΤΗΝ ΔΟΥΛΕΙΑ ΜΟΥ ΚΑΝΤΕ ΕΥΚΟΛΑ ΚΑΙ ΓΡΗΓΟΡΑ ΛΟΓΑΡΙΑΣΜΟ ΣΤΟ EASYBYTEZ KAI KATEΒΑΣΤΕ ΣΑΝ PREMIUM AΠO 20 HOST!! http://www.easybytez.com/free2771.html [Hidden Content] [Hidden Content] [Hidden Content]
  2. Είδος Ταινίας: Drama Πρεμιέρα: 30 April 2015 (Greece) Σκηνοθέτης: Simon Curtis Σενάριο: Alexi Kaye Campbell, E. Randol Schoenberg (life story) Ηθοποιοί: Helen Mirren, Ryan Reynolds, Daniel BrΓΌhl Υπότιτλοι: Ελληνικοί Ενσωματωμένοι & Σε Ξεχωριστό Αρχείο Ελληνικός Τίτλος: Γυναίκα από Χρυσό Μετάφραση: nicas Διάρκεια: 109' Καταλληλότητα: Υπόθεση: Πενήντα χρόνια μετά την φυγή της από τη Βιέννη, η Μαρία Άλτμαν επιστρέφει στην παλιά της πατρίδα για να ανακτήσει οικογενειακά κειμήλια που εκλάπησαν από τους Ναζί, συμπεριλαμβανομένου και του πίνακα «Woman in Gold» του Κλιμτ. Μαζί με τον άπειρο αλλά θαρραλέο δικηγόρο της, ξεκινά μια μάχη που διαρκεί οχτώ χρόνια και την φέρνει στο ανώτατο δικαστήριο των ΗΠΑ. Στην πορεία, αναγκάζεται να αντιμετωπίζει δύσκολες αλήθειες για το παρελθόν της και θα συνειδητοποιήσει ότι κάποιοι πόλεμοι δεν τελειώνουν ποτέ. Η δικαιοσύνη είναι ανεκτίμητη. Extras: Τον ρόλο του δικηγόρου αρχικά είχε πάρει ο Andrew Garfield, αλλά αποχώρησε. Η ιστορία της Μαρία Άλτμαν (2016-2011) είναι αληθινή. Τα γεγονότα έχουν εκτεθεί και στο ντοκιμαντέρ 55 λεπτών του 2008, Adele`s Wish, όπου εμφανίζονταν η ίδια η Άλτμαν. http://www.imdb.com/title/tt2404425/[/CODE] [IMG=http://imageshack.com/a/img537/5857/pLhHqM.png] [IMG=http://farm2.staticflickr.com/1760/42311648172_6686daf766_o.jpg] [IMG=http://c1.staticflickr.com/1/799/40982563121_97d9e4fb96_o.png] [video=youtube;wu9JeTX6Sdw]http://www.youtube.com/watch?v=wu9JeTX6Sdw[/video] [FONT=verdana][B]TEXNIKA XAΡΑΚΤΗΡΙΣΤΙΚΑ [/B][/FONT] [SPOILER] [CODE] General Unique ID : 246474802797901415605426459357412584170 (0xB96D5200CA06CAD989E0D093976BEAEA) Complete name : C:\Users\Administrator\Downloads\womaningold1080brsexmeup\Woman.in.Gold.2015.1080p.BluRay.x264-GECKOS.mkv Format : Matroska Format version : Version 4 / Version 2 File size : 7.64 GiB Duration : 1 h 49 min Overall bit rate : 10.0 Mb/s Encoded date : UTC 2015-06-19 22:24:09 Writing application : mkvmerge v6.2.0 ('Promised Land') built on Apr 28 2013 12:22:01 Writing library : libebml v1.3.0 + libmatroska v1.4.0 Video ID : 1 Format : AVC Format/Info : Advanced Video Codec Format profile : [email protected] Format settings : CABAC / 5 Ref Frames Format settings, CABAC : Yes Format settings, RefFrames : 5 frames Codec ID : V_MPEG4/ISO/AVC Duration : 1 h 49 min Bit rate : 8 508 kb/s Width : 1 920 pixels Height : 808 pixels Display aspect ratio : 2.40:1 Frame rate mode : Constant Frame rate : 23.976 FPS Color space : YUV Chroma subsampling : 4:2:0 Bit depth : 8 bits Scan type : Progressive Bits/(Pixel*Frame) : 0.229 Stream size : 6.33 GiB (83%) Writing library : x264 core 146 r2538 121396c Encoding settings : cabac=1 / ref=5 / deblock=1:0:0 / analyse=0x3:0x133 / me=umh / subme=7 / psy=1 / psy_rd=1.00:0.00 / mixed_ref=1 / me_range=16 / chroma_me=1 / trellis=1 / 8x8dct=1 / cqm=0 / deadzone=21,11 / fast_pskip=0 / chroma_qp_offset=-2 / threads=60 / lookahead_threads=6 / sliced_threads=0 / nr=0 / decimate=1 / interlaced=0 / bluray_compat=0 / constrained_intra=0 / bframes=3 / b_pyramid=2 / b_adapt=1 / b_bias=0 / direct=1 / weightb=1 / open_gop=0 / weightp=2 / keyint=250 / keyint_min=23 / scenecut=40 / intra_refresh=0 / rc_lookahead=40 / rc=2pass / mbtree=1 / bitrate=8508 / ratetol=1.0 / qcomp=0.60 / qpmin=0 / qpmax=69 / qpstep=4 / cplxblur=20.0 / qblur=0.5 / ip_ratio=1.40 / aq=1:1.00 Language : English Default : Yes Forced : No Audio ID : 2 Format : DTS Format/Info : Digital Theater Systems Codec ID : A_DTS Duration : 1 h 49 min Bit rate mode : Constant Bit rate : 1 509 kb/s Channel(s) : 6 channels Channel positions : Front: L C R, Side: L R, LFE Sampling rate : 48.0 kHz Frame rate : 93.750 FPS (512 SPF) Bit depth : 24 bits Compression mode : Lossy Stream size : 1.15 GiB (15%) Language : English Default : Yes Forced : No Text ID : 3 Format : UTF-8 Codec ID : S_TEXT/UTF8 Codec ID/Info : UTF-8 Plain Text Title : English-Forced Language : English Default : Yes Forced : Yes [/CODE] [/SPOILER] [CENTER] [IMG=http://c1.staticflickr.com/1/791/39173997270_2f2136d533_o.png] [IMG=http://c1.staticflickr.com/1/789/39174288770_254a09d05d_o.png] [FONT=verdana][SIZE=3][B]ΑΝ ΘΕΛΕΤΕ ΝΑ ΣΤΗΡΙΞΕΤΕ ΤΗΝ ΔΟΥΛΕΙΑ ΜΟΥ [B]ΚΑΝΤΕ ΕΥΚΟΛΑ ΚΑΙ ΓΡΗΓΟΡΑ ΛΟΓΑΡΙΑΣΜΟ ΣΤΟ[/B][/B][/SIZE][COLOR=#837E6E][SIZE=3][B][B] [COLOR=#ff0000]EASYBYTEZ[/COLOR] [/B][/B][/SIZE][/COLOR][SIZE=3][B][B]KAI KATEΒΑΣΤΕ ΣΑΝ PREMIUM AΠO [COLOR=#ff0000]20 [/COLOR]HOST!![/B][/B][/SIZE] [COLOR=#837E6E][SIZE=3][B][B][B][URL="http://www.easybytez.com/free2771.html"][COLOR=#ff0000]http://www.easybytez.com/free2771.html[/COLOR][/URL][/B][/B][/B][/SIZE][/COLOR][/FONT] [LEFT][Hidden Content] [/LEFT] [IMG=http://c1.staticflickr.com/1/812/26112042877_04292fbd5e_o.png] [LEFT][Hidden Content][CENTER][Hidden Content] [/COLOR][/COLOR][IMG=http://c1.staticflickr.com/5/4786/40089466905_8e4a5d3f42_o.png][COLOR=#ff0000][COLOR=#222222] [/COLOR][/COLOR] [/CENTER] [/CENTER]
  3. Είδος Ταινίας: Drama, Western Πρεμιέρα: 25 December 2012 (USA) Σκηνοθέτης: Quentin Tarantino Σενάριο: Quentin Tarantino Ηθοποιοί: Jamie Foxx, Christoph Waltz, Leonardo DiCaprio Υπότιτλοι: Ελληνικοί Ενσωματωμένοι & Σε Ξεχωριστό Αρχείο Ελληνικός Τίτλος: Django, ο Τιμωρός Γνωστό και ως: Zencirsiz Canqo Μετάφραση: FireBreath & Vicky Διάρκεια: 165' Καταλληλότητα: Υπόθεση: Ο Ντζάνγκο είναι ένας απελευθερωμένος σκλάβος που τώρα βοηθάει έναν Γερμανό κυνηγό επικηρυγμένων. Ως ανταλλαγή, περιμένει βοήθεια για τον απώτερο σκοπό του: να εκδικηθεί το πρώην αφεντικό του, τον Κάλβιν Κάντι, που έχει απαγάγει τη γυναίκα του και θέλει ξανά τον Τζάνγκο με αλυσίδες. Του πήραν την ελευθερία. Θα τους πάρει τα πάντα. Extras: Kevin Costner, Joseph Gordon-Levitt, Jonah Hill, Ken Russell και Sacha Baron Cohen βρέθηκαν μισό να παίξουν, αλλά αποχώρησαν. Παρότι η ταινία είναι ένα τυπικό Γουέστερν, ο Tarantino θέλει να την αποκαλεί ως ένα «Southern». Αυτό απορρέει από τον χώρο δράσης στον αμερικανικό Νότο. Ο Will Smith, ο Chris Tucker κι ο Idris Elba ήταν οι πρώτοι που ακούστηκαν για τον ρόλο του Τζάνγκο. Ο ρόλος γράφτηκε με το μυαλό στον Smith, αλλά παρότι οι μάνατζερ του ήθελαν να παίξει, αυτός αρνήθηκε. http://www.imdb.com/title/tt1853728/[/CODE] [IMG=http://c1.staticflickr.com/5/4780/40089464785_599858f97a_o.png] [IMG=http://farm2.staticflickr.com/1738/40531382490_9ff3bed187_o.jpg] [IMG=http://c1.staticflickr.com/1/799/40982563121_97d9e4fb96_o.png] [video=youtube;_iH0UBYDI4g]http://www.youtube.com/watch?v=_iH0UBYDI4g[/video] [FONT=verdana][B]TEXNIKA XAΡΑΚΤΗΡΙΣΤΙΚΑ [/B][/FONT] [SPOILER] [CODE] GeneralComplete name : C:\Users\Administrator\Downloads\djangounchained1080micsexmeup\Django.Unchained.2012.1080p.BluRay.x264-SPARKS.mkv Format : Matroska Format version : Version 2 File size : 12.0 GiB Duration : 2 h 45 min Overall bit rate : 10.4 Mb/s Writing application : mkvmerge v4.1.1 ('Bouncin' Back') built on Jul 3 2010 22:54:08 Writing library : libebml v1.0.0 + libmatroska v1.0 Video ID : 1 Format : AVC Format/Info : Advanced Video Codec Format profile : [email protected] Format settings : CABAC / 5 Ref Frames Format settings, CABAC : Yes Format settings, RefFrames : 5 frames Codec ID : V_MPEG4/ISO/AVC Duration : 2 h 45 min Bit rate : 8 900 kb/s Width : 1 920 pixels Height : 800 pixels Display aspect ratio : 2.40:1 Frame rate mode : Constant Frame rate : 23.976 (24000/1001) FPS Color space : YUV Chroma subsampling : 4:2:0 Bit depth : 8 bits Scan type : Progressive Bits/(Pixel*Frame) : 0.242 Stream size : 10.0 GiB (84%) Writing library : x264 core 130 r2273 b3065e6 Encoding settings : cabac=1 / ref=5 / deblock=1:0:0 / analyse=0x3:0x133 / me=umh / subme=7 / psy=1 / psy_rd=1.00:0.00 / mixed_ref=1 / me_range=16 / chroma_me=1 / trellis=1 / 8x8dct=1 / cqm=0 / deadzone=21,11 / fast_pskip=0 / chroma_qp_offset=-2 / threads=12 / lookahead_threads=2 / sliced_threads=0 / nr=0 / decimate=1 / interlaced=0 / bluray_compat=0 / constrained_intra=0 / bframes=3 / b_pyramid=2 / b_adapt=1 / b_bias=0 / direct=1 / weightb=1 / open_gop=0 / weightp=2 / keyint=250 / keyint_min=23 / scenecut=40 / intra_refresh=0 / rc_lookahead=40 / rc=2pass / mbtree=1 / bitrate=8900 / ratetol=1.0 / qcomp=0.60 / qpmin=0 / qpmax=69 / qpstep=4 / cplxblur=20.0 / qblur=0.5 / ip_ratio=1.40 / aq=1:1.00 Language : English Default : Yes Forced : No Audio ID : 2 Format : DTS Format/Info : Digital Theater Systems Codec ID : A_DTS Duration : 2 h 45 min Bit rate mode : Constant Bit rate : 1 509 kb/s Channel(s) : 6 channels Channel positions : Front: L C R, Side: L R, LFE Sampling rate : 48.0 kHz Frame rate : 93.750 FPS (512 SPF) Bit depth : 24 bits Compression mode : Lossy Stream size : 1.74 GiB (14%) Language : English Default : Yes Forced : No Text ID : 3 Format : UTF-8 Codec ID : S_TEXT/UTF8 Codec ID/Info : UTF-8 Plain Text Language : English Default : No Forced : No [/CODE] [/SPOILER] [IMG=http://c1.staticflickr.com/1/791/39173997270_2f2136d533_o.png] [IMG=http://c1.staticflickr.com/1/789/39174288770_254a09d05d_o.png] [SIZE=3][FONT=verdana][B]ΑΝ ΘΕΛΕΤΕ ΝΑ ΣΤΗΡΙΞΕΤΕ ΤΗΝ ΔΟΥΛΕΙΑ ΜΟΥ ΚΑΝΤΕ ΕΥΚΟΛΑ ΚΑΙ ΓΡΗΓΟΡΑ ΛΟΓΑΡΙΑΣΜΟ ΣΤΟ [COLOR=#ff0000]EASYBYTEZ [/COLOR]KAI KATEΒΑΣΤΕ ΣΑΝ PREMIUM AΠO [COLOR=#ff0000]20 [/COLOR]HOST!! [COLOR=#ff0000]http://www.easybytez.com/free2771.html[/COLOR][/B][/FONT][/SIZE][/CENTER] [Hidden Content] [CENTER][IMG=http://c1.staticflickr.com/1/812/26112042877_04292fbd5e_o.png] [/CENTER] [Hidden Content][CENTER][Hidden Content] [IMG=http://c1.staticflickr.com/5/4786/40089466905_8e4a5d3f42_o.png] [/CENTER]
  4. Είδος Ταινίας: Drama Πρεμιέρα: 13 October 2017 (USA) Σκηνοθέτης: Jim Sheridan Σενάριο: Sebastian Barry (based on the novel by), Jim Sheridan Ηθοποιοί: Rooney Mara, Aidan Turner, Theo James Υπότιτλοι: Ελληνικοί Ενσωματωμένοι & Σε Ξεχωριστό Αρχείο Ελληνικός Τίτλος: Η Μυστική Γραφή Μετάφραση: Camality Jane Διάρκεια: 108' Καταλληλότητα: - encoder: .:Sexmeup:. Πηγή: 1080p.BluRay.x264-GUACAMOLE Υπόθεση: Η λαίδη Ρόουζ είναι μια ηλικιωμένη γυναίκα που ζει σε ψυχιατρική κλινική για πάνω από 50 χρόνια. Ωστόσο, στο βάθος των ματιών της υπάρχει ένα φως που δεν λέει να σβήσει. Η περίπτωσή της τραβά το ενδιαφέρον του Δρ. Στέφεν Γκριν, που τη βοηθά να ξαναθυμηθεί το παρελθόν της και να κερδίσει την ελευθερία της. Μέσα από τη μυστική γραφή της Ρόουζ αναδύεται μια ζωή γεμάτη έρωτα, αδικία, ενώ αποκαλύπτεται η προσωπικότητα μιας αξιόλογης και θαρραλέας νέας γυναίκας, της οποίας το μόνο έγκλημα ήταν ότι άφησε τον έρωτας να κυριαρχήσει στη ζωή της. Ποιες θα είναι οι στιγμές που θα θυμάσαι στο τέλος της ζωής σου; Extras: Αρχικός πάτερ Γκαντ ήταν ο Jonathan Rhys Meyers, αλλά αναγκάστηκε να αποχωρίσει λόγω της καθυστέρησης έναρξης των γυρισμάτων. ΑΝ ΘΕΛΕΤΕ ΝΑ ΣΤΗΡΙΞΕΤΕ ΤΗΝ ΔΟΥΛΕΙΑ ΜΟΥ ΚΑΝΤΕ ΕΥΚΟΛΑ ΚΑΙ ΓΡΗΓΟΡΑ ΛΟΓΑΡΙΑΣΜΟ ΣΤΟ EASYBYTEZ KAI KATEΒΑΣΤΕ ΣΑΝ PREMIUM AΠO 20 HOST!! http://www.easybytez.com/free2771.html [Hidden Content] [Hidden Content] [Hidden Content]
  5. Είδος Ταινίας: Drama, Horror, Mystery Πρεμιέρα: 24 March 2017 (USA) Σκηνοθέτης: Hunter Adams Σενάριο: Hunter Adams (story), Hunter Adams Ηθοποιοί: Ted Levine, Samantha Isler, Danny Goldring Υπότιτλοι: Ελληνικοί Ενσωματωμένοι & Σε Ξεχωριστό Αρχείο Μετάφραση: J'aime le noir Διάρκεια: 85' Καταλληλότητα: - encoder: .:Sexmeup:. Πηγή: 1080p.WEBRip.x264.AC3-eSc Υπόθεση: β€‹Η εμμονή ενός κοριτσιού με την εξαφάνιση του αδερφού της, θα την οδηγήσει σε ένα εφιαλτικό ταξίδι κατά το οποίο θα πρέπει να αντιμετωπίσει μια θανάσιμη πρόταση για να τον φέρει πίσω! ΑΝ ΘΕΛΕΤΕ ΝΑ ΣΤΗΡΙΞΕΤΕ ΤΗΝ ΔΟΥΛΕΙΑ ΜΟΥ ΚΑΝΤΕ ΕΥΚΟΛΑ ΚΑΙ ΓΡΗΓΟΡΑ ΛΟΓΑΡΙΑΣΜΟ ΣΤΟ EASYBYTEZ KAI KATEΒΑΣΤΕ ΣΑΝ PREMIUM AΠO 20 HOST!! http://www.easybytez.com/free2771.html [Hidden Content] [Hidden Content] [Hidden Content]
  6. Είδος Ταινίας: Drama, Horror, Mystery Πρεμιέρα: 24 March 2017 (USA) Σκηνοθέτης: Hunter Adams Σενάριο: Hunter Adams (story), Hunter Adams Ηθοποιοί: Ted Levine, Samantha Isler, Danny Goldring Υπότιτλοι: Ελληνικοί Ενσωματωμένοι & Σε Ξεχωριστό Αρχείο Μετάφραση: J'aime le noir Διάρκεια: 85' Καταλληλότητα: - encoder: .:Sexmeup:. Πηγή: 1080p.WEBRip.x264.AC3-eSc Υπόθεση: β€‹Η εμμονή ενός κοριτσιού με την εξαφάνιση του αδερφού της, θα την οδηγήσει σε ένα εφιαλτικό ταξίδι κατά το οποίο θα πρέπει να αντιμετωπίσει μια θανάσιμη πρόταση για να τον φέρει πίσω! ΑΝ ΘΕΛΕΤΕ ΝΑ ΣΤΗΡΙΞΕΤΕ ΤΗΝ ΔΟΥΛΕΙΑ ΜΟΥ ΚΑΝΤΕ ΕΥΚΟΛΑ ΚΑΙ ΓΡΗΓΟΡΑ ΛΟΓΑΡΙΑΣΜΟ ΣΤΟ EASYBYTEZ KAI KATEΒΑΣΤΕ ΣΑΝ PREMIUM AΠO 20 HOST!! http://www.easybytez.com/free2771.html [Hidden Content] [Hidden Content] [Hidden Content]
  7. Είδος Ταινίας: Drama, Western Πρεμιέρα: 25 December 2012 (USA) Σκηνοθέτης: Quentin Tarantino Σενάριο: Quentin Tarantino Ηθοποιοί: Jamie Foxx, Christoph Waltz, Leonardo DiCaprio Υπότιτλοι: Ελληνικοί Ενσωματωμένοι & Σε Ξεχωριστό Αρχείο Ελληνικός Τίτλος: Django, ο Τιμωρός Γνωστό και ως: Zencirsiz Canqo Μετάφραση: FireBreath & Vicky Διάρκεια: 165' Καταλληλότητα: - encoder: .:Sexmeup:. Πηγή: 1080p.BluRay.x264-SPARKS Υπόθεση: Ο Ντζάνγκο είναι ένας απελευθερωμένος σκλάβος που τώρα βοηθάει έναν Γερμανό κυνηγό επικηρυγμένων. Ως ανταλλαγή, περιμένει βοήθεια για τον απώτερο σκοπό του: να εκδικηθεί το πρώην αφεντικό του, τον Κάλβιν Κάντι, που έχει απαγάγει τη γυναίκα του και θέλει ξανά τον Τζάνγκο με αλυσίδες. Του πήραν την ελευθερία. Θα τους πάρει τα πάντα. Extras: Kevin Costner, Joseph Gordon-Levitt, Jonah Hill, Ken Russell και Sacha Baron Cohen βρέθηκαν μισό να παίξουν, αλλά αποχώρησαν. Παρότι η ταινία είναι ένα τυπικό Γουέστερν, ο Tarantino θέλει να την αποκαλεί ως ένα «Southern». Αυτό απορρέει από τον χώρο δράσης στον αμερικανικό Νότο. Ο Will Smith, ο Chris Tucker κι ο Idris Elba ήταν οι πρώτοι που ακούστηκαν για τον ρόλο του Τζάνγκο. Ο ρόλος γράφτηκε με το μυαλό στον Smith, αλλά παρότι οι μάνατζερ του ήθελαν να παίξει, αυτός αρνήθηκε. ΑΝ ΘΕΛΕΤΕ ΝΑ ΣΤΗΡΙΞΕΤΕ ΤΗΝ ΔΟΥΛΕΙΑ ΜΟΥ ΚΑΝΤΕ ΕΥΚΟΛΑ ΚΑΙ ΓΡΗΓΟΡΑ ΛΟΓΑΡΙΑΣΜΟ ΣΤΟ EASYBYTEZ KAI KATEΒΑΣΤΕ ΣΑΝ PREMIUM AΠO 20 HOST!! http://www.easybytez.com/free2771.html [Hidden Content] [Hidden Content] [Hidden Content]
  8. Είδος Ταινίας: Drama, Western Πρεμιέρα: 25 December 2012 (USA) Σκηνοθέτης: Quentin Tarantino Σενάριο: Quentin Tarantino Ηθοποιοί: Jamie Foxx, Christoph Waltz, Leonardo DiCaprio Υπότιτλοι: Ελληνικοί Ενσωματωμένοι & Σε Ξεχωριστό Αρχείο Ελληνικός Τίτλος: Django, ο Τιμωρός Γνωστό και ως: Zencirsiz Canqo Μετάφραση: FireBreath & Vicky Διάρκεια: 165' Καταλληλότητα: - encoder: .:Sexmeup:. Πηγή: 1080p.BluRay.x264-SPARKS Υπόθεση: Ο Ντζάνγκο είναι ένας απελευθερωμένος σκλάβος που τώρα βοηθάει έναν Γερμανό κυνηγό επικηρυγμένων. Ως ανταλλαγή, περιμένει βοήθεια για τον απώτερο σκοπό του: να εκδικηθεί το πρώην αφεντικό του, τον Κάλβιν Κάντι, που έχει απαγάγει τη γυναίκα του και θέλει ξανά τον Τζάνγκο με αλυσίδες. Του πήραν την ελευθερία. Θα τους πάρει τα πάντα. Extras: Kevin Costner, Joseph Gordon-Levitt, Jonah Hill, Ken Russell και Sacha Baron Cohen βρέθηκαν μισό να παίξουν, αλλά αποχώρησαν. Παρότι η ταινία είναι ένα τυπικό Γουέστερν, ο Tarantino θέλει να την αποκαλεί ως ένα «Southern». Αυτό απορρέει από τον χώρο δράσης στον αμερικανικό Νότο. Ο Will Smith, ο Chris Tucker κι ο Idris Elba ήταν οι πρώτοι που ακούστηκαν για τον ρόλο του Τζάνγκο. Ο ρόλος γράφτηκε με το μυαλό στον Smith, αλλά παρότι οι μάνατζερ του ήθελαν να παίξει, αυτός αρνήθηκε. ΑΝ ΘΕΛΕΤΕ ΝΑ ΣΤΗΡΙΞΕΤΕ ΤΗΝ ΔΟΥΛΕΙΑ ΜΟΥ ΚΑΝΤΕ ΕΥΚΟΛΑ ΚΑΙ ΓΡΗΓΟΡΑ ΛΟΓΑΡΙΑΣΜΟ ΣΤΟ EASYBYTEZ KAI KATEΒΑΣΤΕ ΣΑΝ PREMIUM AΠO 20 HOST!! http://www.easybytez.com/free2771.html [Hidden Content] [Hidden Content] [Hidden Content]
  9. Είδος Ταινίας: Drama Πρεμιέρα: 21 October 2015 (France) Σκηνοθέτης: Michel Franco Σενάριο: Michel Franco Ηθοποιοί: Tim Roth, Maribeth Monroe, Elizabeth Tulloch Υπότιτλοι: Ελληνικοί Ενσωματωμένοι & Σε Ξεχωριστό Αρχείο Ελληνικός Τίτλος: Το Χρονικό Μιας Αθωότητας Μετάφραση: pierre.beauman Διάρκεια: 93' Καταλληλότητα: - encoder: .:Sexmeup:. Πηγή: 1080p.AMZN.WEBRip.DD5.1.x264-Cinefeel Υπόθεση: Ο Ντέιβιντ είναι νοσηλευτής που εργάζεται με ασθενείς που βρίσκονται στο χείλος του θανάτου. Επαρκής και αποτελεσματικός στη δουλειά του, διαμορφώνει φιλίες με τους ασθενείς τόσο προσωπικές και βαθιές, που ξεπερνούν την απλή περίθαλψη. Αλλά όταν ο κάθε ασθενής του πεθαίνει, ο Ντέιβιντ επιστρέφει στον «αληθινό» κόσμο, τον κόσμο των ζωντανών. Κι εκεί είναι που ο Ντέιβιντ είναι ανεπαρκής, αδέξιος κι επιφυλακτικός. Είναι φανερό ότι έχει ανάγκη την οικογένειά του, όσο τον έχει ανάγκη κι αυτή. Από ασθενή σε ασθενή, αποκαλύπτεται το παρελθόν του νοσοκόμου, το οποίο επιμελώς κρύβει. Ένα παρελθόν με χρόνιες τύψεις και ενοχές. Το βάρος αυτό πλέον είναι αβάστακτο, και ο Ντέιβιντ πρέπει να αντιμετωπίσει κατά πρόσωπο το παρελθόν του για να βρει την ίαση. Extras: Βραβείο σεναρίου στο φεστιβάλ των Καννών. ΑΝ ΘΕΛΕΤΕ ΝΑ ΣΤΗΡΙΞΕΤΕ ΤΗΝ ΔΟΥΛΕΙΑ ΜΟΥ ΚΑΝΤΕ ΕΥΚΟΛΑ ΚΑΙ ΓΡΗΓΟΡΑ ΛΟΓΑΡΙΑΣΜΟ ΣΤΟ EASYBYTEZ KAI KATEΒΑΣΤΕ ΣΑΝ PREMIUM AΠO 20 HOST!! http://www.easybytez.com/free2771.html [Hidden Content] [Hidden Content] [Hidden Content]
  10. Είδος Ταινίας: Drama Πρεμιέρα: 21 October 2015 (France) Σκηνοθέτης: Michel Franco Σενάριο: Michel Franco Ηθοποιοί: Tim Roth, Maribeth Monroe, Elizabeth Tulloch Υπότιτλοι: Ελληνικοί Ενσωματωμένοι & Σε Ξεχωριστό Αρχείο Ελληνικός Τίτλος: Το Χρονικό Μιας Αθωότητας Μετάφραση: pierre.beauman Διάρκεια: 93' Καταλληλότητα: - encoder: .:Sexmeup:. Πηγή: 1080p.AMZN.WEBRip.DD5.1.x264-Cinefeel Υπόθεση: Ο Ντέιβιντ είναι νοσηλευτής που εργάζεται με ασθενείς που βρίσκονται στο χείλος του θανάτου. Επαρκής και αποτελεσματικός στη δουλειά του, διαμορφώνει φιλίες με τους ασθενείς τόσο προσωπικές και βαθιές, που ξεπερνούν την απλή περίθαλψη. Αλλά όταν ο κάθε ασθενής του πεθαίνει, ο Ντέιβιντ επιστρέφει στον «αληθινό» κόσμο, τον κόσμο των ζωντανών. Κι εκεί είναι που ο Ντέιβιντ είναι ανεπαρκής, αδέξιος κι επιφυλακτικός. Είναι φανερό ότι έχει ανάγκη την οικογένειά του, όσο τον έχει ανάγκη κι αυτή. Από ασθενή σε ασθενή, αποκαλύπτεται το παρελθόν του νοσοκόμου, το οποίο επιμελώς κρύβει. Ένα παρελθόν με χρόνιες τύψεις και ενοχές. Το βάρος αυτό πλέον είναι αβάστακτο, και ο Ντέιβιντ πρέπει να αντιμετωπίσει κατά πρόσωπο το παρελθόν του για να βρει την ίαση. Extras: Βραβείο σεναρίου στο φεστιβάλ των Καννών. ΑΝ ΘΕΛΕΤΕ ΝΑ ΣΤΗΡΙΞΕΤΕ ΤΗΝ ΔΟΥΛΕΙΑ ΜΟΥ ΚΑΝΤΕ ΕΥΚΟΛΑ ΚΑΙ ΓΡΗΓΟΡΑ ΛΟΓΑΡΙΑΣΜΟ ΣΤΟ EASYBYTEZ KAI KATEΒΑΣΤΕ ΣΑΝ PREMIUM AΠO 20 HOST!! http://www.easybytez.com/free2771.html [Hidden Content] [Hidden Content] [Hidden Content]
  11. Είδος Ταινίας: Comedy, Drama Πρεμιέρα: 15 November 2013 (USA) Σκηνοθέτης: Malcolm D. Lee Σενάριο: Malcolm D. Lee, Malcolm D. Lee (characters) Ηθοποιοί: Monica Calhoun, Morris Chestnut, Melissa De Sousa Υπότιτλοι: Ελληνικοί Ενσωματωμένοι & Σε Ξεχωριστό Αρχείο Ελληνικός Τίτλος: Ο Εραστής της Νύφης: Το Πάρτι Μετάφραση: Άγνωστος Διάρκεια: 123' Καταλληλότητα: - encoder: .:Sexmeup:. Πηγή: 1080p.BluRay.x264-SPARKS Υπόθεση: Ο συγγραφέας Χάρπερ Στιούαρτ αντιμετωπίζει ένα απροσδόκητο πρόβλημα. Το αυτοβιογραφικό του βιβλίο προγραμματίστηκε να κυκλοφορήσει την ίδια ημέρα που γίνεται ο γάμος του καλύτερου του φίλου, Λανς Σάλιβαν. Πόσο μάλλον που είναι και κουμπάρος. Ακόμα χειρότερα, το βιβλίο αποκαλύπτει την κρυφή σχέση που είχε κάποτε ο Χάρπερ με τη μέλλουσα νύφη. Οι καιροί αλλάζουν. Η φιλία όχι. Extras: Μακρινό σίκουελ της ταινίας The Best Man του 1999. ΑΝ ΘΕΛΕΤΕ ΝΑ ΣΤΗΡΙΞΕΤΕ ΤΗΝ ΔΟΥΛΕΙΑ ΜΟΥ ΚΑΝΤΕ ΕΥΚΟΛΑ ΚΑΙ ΓΡΗΓΟΡΑ ΛΟΓΑΡΙΑΣΜΟ ΣΤΟ EASYBYTEZ KAI KATEΒΑΣΤΕ ΣΑΝ PREMIUM AΠO 20 HOST!! http://www.easybytez.com/free2771.html [Hidden Content] [Hidden Content] [Hidden Content]
  12. Είδος Ταινίας: Drama, Western Πρεμιέρα: 26 June 2014 (Greece) Σκηνοθέτης: Tommy Lee Jones Σενάριο: Tommy Lee Jones (screenplay), Kieran Fitzgerald (screenplay) Ηθοποιοί: Tommy Lee Jones, Hilary Swank, Grace Gummer Υπότιτλοι: Ελληνικοί Ενσωματωμένοι & Σε Ξεχωριστό Αρχείο Ελληνικός Τίτλος: Μέχρι το τέλος Μετάφραση: FOXYGROUP Διάρκεια: 122' Καταλληλότητα: Υπόθεση: Στην παγωμένη Νεμπράσκα του 1845, στα σύνορα του Δυτικού κόσμου, η μοναχική Μέρι αναλαμβάνει να μεταφέρει πίσω στον πολιτισμό τρεις γυναίκες που έχουν χάσει τα λογικά τους. Στη διαδρομή, θα την ακολουθήσει ο Μπριγκς, επικηρυγμένος λιποτάκτης, ο μοναδικός άντρας που θα τολμήσει να την πλησιάσει τόσο, ώστε η Μέρι να τον ζητήσει σε γάμο. Όποια κι αν είναι η απόφαση του Μπριγκς -μια ζωή οικογενειακή ή τυχοδιωκτική- τίποτα δεν θα είναι πια ίδιο για τους δυο τους, αλλά και για τον κόσμο τους που βρίσκεται στα πρόθυρα των μεγάλων αλλαγών. http://www.imdb.com/title/tt2398231/[/CODE] [IMG=http://c1.staticflickr.com/5/4780/40089464785_599858f97a_o.png] [IMG=http://farm1.staticflickr.com/885/40512159530_635ce5594c_o.jpg] [IMG=http://c1.staticflickr.com/1/799/40982563121_97d9e4fb96_o.png] [video=youtube;u6uQkoXKGxM]http://www.youtube.com/watch?v=u6uQkoXKGxM[/video] [FONT=verdana][B]TEXNIKA XAΡΑΚΤΗΡΙΣΤΙΚΑ [/B][/FONT] [SPOILER] [CODE] General Complete name : C:\Users\Administrator\Downloads\thehomesman1080brsexmeup\The.Homesman.2014.MULTi.1080p.BluRay.x264-LOST.mkv Format : Matroska Format version : Version 2 File size : 9.84 GiB Duration : 2 h 2 min Overall bit rate : 11.5 Mb/s Writing application : mkvmerge v6.6.0 ('The Edge Of The In Between') built on Dec 1 2013 17:55:00 Writing library : libebml v1.3.0 + libmatroska v1.4.1 Video ID : 1 Format : AVC Format/Info : Advanced Video Codec Format profile : [email protected] Format settings : CABAC / 5 Ref Frames Format settings, CABAC : Yes Format settings, RefFrames : 5 frames Codec ID : V_MPEG4/ISO/AVC Duration : 2 h 2 min Bit rate : 8 476 kb/s Width : 1 920 pixels Height : 816 pixels Display aspect ratio : 2.35:1 Frame rate mode : Constant Frame rate : 24.000 FPS Color space : YUV Chroma subsampling : 4:2:0 Bit depth : 8 bits Scan type : Progressive Bits/(Pixel*Frame) : 0.225 Stream size : 7.06 GiB (72%) Writing library : x264 core 142 r2479 dd79a61 Encoding settings : cabac=1 / ref=5 / deblock=1:-3:-3 / analyse=0x3:0x113 / me=umh / subme=8 / psy=1 / psy_rd=1.00:0.00 / mixed_ref=1 / me_range=16 / chroma_me=1 / trellis=1 / 8x8dct=1 / cqm=0 / deadzone=21,11 / fast_pskip=1 / chroma_qp_offset=-2 / threads=12 / lookahead_threads=2 / sliced_threads=0 / nr=0 / decimate=1 / interlaced=0 / bluray_compat=0 / constrained_intra=0 / bframes=3 / b_pyramid=2 / b_adapt=2 / b_bias=0 / direct=3 / weightb=1 / open_gop=0 / weightp=2 / keyint=240 / keyint_min=24 / scenecut=40 / intra_refresh=0 / rc_lookahead=50 / rc=2pass / mbtree=1 / bitrate=8476 / ratetol=1.0 / qcomp=0.60 / qpmin=0 / qpmax=69 / qpstep=4 / cplxblur=20.0 / qblur=0.5 / ip_ratio=1.40 / aq=1:1.00 Language : English Default : Yes Forced : No Audio #1 ID : 2 Format : DTS Format/Info : Digital Theater Systems Codec ID : A_DTS Duration : 2 h 2 min Bit rate mode : Constant Bit rate : 1 509 kb/s Channel(s) : 6 channels Channel positions : Front: L C R, Side: L R, LFE Sampling rate : 48.0 kHz Frame rate : 93.750 FPS (512 SPF) Bit depth : 24 bits Compression mode : Lossy Stream size : 1.29 GiB (13%) Title : French DTS 1509kbps Language : French Default : Yes Forced : No Audio #2 ID : 3 Format : DTS Format/Info : Digital Theater Systems Codec ID : A_DTS Duration : 2 h 2 min Bit rate mode : Constant Bit rate : 1 509 kb/s Channel(s) : 6 channels Channel positions : Front: L C R, Side: L R, LFE Sampling rate : 48.0 kHz Frame rate : 93.750 FPS (512 SPF) Bit depth : 24 bits Compression mode : Lossy Stream size : 1.29 GiB (13%) Title : English DTS 1509kbps Language : English Default : Yes Forced : No Text #1 ID : 4 Format : UTF-8 Codec ID : S_TEXT/UTF8 Codec ID/Info : UTF-8 Plain Text Title : Forced Language : French Default : Yes Forced : Yes Text #2 ID : 5 Format : UTF-8 Codec ID : S_TEXT/UTF8 Codec ID/Info : UTF-8 Plain Text Title : French Language : French Default : No Forced : No [/CODE] [/SPOILER] [IMG=http://c1.staticflickr.com/1/791/39173997270_2f2136d533_o.png] [IMG=http://c1.staticflickr.com/1/789/39174288770_254a09d05d_o.png] [SIZE=3][FONT=verdana][B]ΑΝ ΘΕΛΕΤΕ ΝΑ ΣΤΗΡΙΞΕΤΕ ΤΗΝ ΔΟΥΛΕΙΑ ΜΟΥ ΚΑΝΤΕ ΕΥΚΟΛΑ ΚΑΙ ΓΡΗΓΟΡΑ ΛΟΓΑΡΙΑΣΜΟ ΣΤΟ [COLOR=#ff0000]EASYBYTEZ [/COLOR]KAI KATEΒΑΣΤΕ ΣΑΝ PREMIUM AΠO [COLOR=#ff0000]20 [/COLOR]HOST!! [COLOR=#ff0000]http://www.easybytez.com/free2771.html[/COLOR][/B][/FONT][/SIZE][/CENTER] [Hidden Content] [CENTER][IMG=http://c1.staticflickr.com/1/812/26112042877_04292fbd5e_o.png] [/CENTER] [Hidden Content][CENTER][Hidden Content] [IMG=http://c1.staticflickr.com/5/4786/40089466905_8e4a5d3f42_o.png] [/CENTER]
  13. Είδος Ταινίας: Comedy, Drama, Romance Πρεμιέρα: 22 November 2012 (Greece) Σκηνοθέτης: David Frankel Σενάριο: Vanessa Taylor Ηθοποιοί: Meryl Streep, Tommy Lee Jones, Steve Carell Υπότιτλοι: Ελληνικοί Ενσωματωμένοι & Σε Ξεχωριστό Αρχείο Ελληνικός Τίτλος: Ποτέ Δεν Είναι Αργά Μετάφραση: G. V Διάρκεια: 100' Καταλληλότητα: - encoder: .:Sexmeup:. Πηγή: 1080p.BluRay.x264-SPARKS Υπόθεση: Ύστερα από 30 χρόνια έγγαμου βίου, η Μέιβ αισθάνεται την ανάγκη να ανανεώσει τη σχέση της με τον σύζυγό της, Άρνολντ, προτού αρχίσει να σκέφτεται σοβαρά την πιθανότητα διαζυγίου. Η ευκαιρία τής δίνεται όταν πληροφορείται την ύπαρξη του Δρ Μπέρνι Φελντ, ενός φημισμένου γκουρού-συμβούλου γάμου. Η Μέιβ κι ο Άρνολντ θα μπουν στο αεροπλάνο για να επισκεφθούν τον δόκτορα στην πόλη του, το Great Home Spings, προετοιμασμένοι για ένα σαββατοκύριακο εντατικής θεραπείας πάνω σε θέματα γάμου και σεξ. Η διαδρομή δεν θα είναι καθόλου εύκολη, όμως η αληθινή περιπέτεια θα ξεκινήσει μόλις οι δυο τους βρεθούν στην κρεβατοκάμαρα, με αποστολή να αναζωπυρώσουν τη νεανική φλόγα του πάθους τους. Τα δύσκολα τώρα αρχίζουν! Καμιά φορά για να κρατήσεις τη μαγεία, πρέπει να μάθεις μερικά κολπάκια. Extras: Ο πρώτος ρόλος προσφέρθηκε στον Jeff Bridges, αλλά αυτός τον απέρριψε. ΑΝ ΘΕΛΕΤΕ ΝΑ ΣΤΗΡΙΞΕΤΕ ΤΗΝ ΔΟΥΛΕΙΑ ΜΟΥ ΚΑΝΤΕ ΕΥΚΟΛΑ ΚΑΙ ΓΡΗΓΟΡΑ ΛΟΓΑΡΙΑΣΜΟ ΣΤΟ EASYBYTEZ KAI KATEΒΑΣΤΕ ΣΑΝ PREMIUM AΠO 20 HOST!! http://www.easybytez.com/free2771.html [Hidden Content] [Hidden Content] [Hidden Content]
  14. Είδος Ταινίας: Comedy, Drama, Romance Πρεμιέρα: 22 November 2012 (Greece) Σκηνοθέτης: David Frankel Σενάριο: Vanessa Taylor Ηθοποιοί: Meryl Streep, Tommy Lee Jones, Steve Carell Υπότιτλοι: Ελληνικοί Ενσωματωμένοι & Σε Ξεχωριστό Αρχείο Ελληνικός Τίτλος: Ποτέ Δεν Είναι Αργά Μετάφραση: G. V Διάρκεια: 100' Καταλληλότητα: - encoder: .:Sexmeup:. Πηγή: 1080p.BluRay.x264-SPARKS Υπόθεση: Ύστερα από 30 χρόνια έγγαμου βίου, η Μέιβ αισθάνεται την ανάγκη να ανανεώσει τη σχέση της με τον σύζυγό της, Άρνολντ, προτού αρχίσει να σκέφτεται σοβαρά την πιθανότητα διαζυγίου. Η ευκαιρία τής δίνεται όταν πληροφορείται την ύπαρξη του Δρ Μπέρνι Φελντ, ενός φημισμένου γκουρού-συμβούλου γάμου. Η Μέιβ κι ο Άρνολντ θα μπουν στο αεροπλάνο για να επισκεφθούν τον δόκτορα στην πόλη του, το Great Home Spings, προετοιμασμένοι για ένα σαββατοκύριακο εντατικής θεραπείας πάνω σε θέματα γάμου και σεξ. Η διαδρομή δεν θα είναι καθόλου εύκολη, όμως η αληθινή περιπέτεια θα ξεκινήσει μόλις οι δυο τους βρεθούν στην κρεβατοκάμαρα, με αποστολή να αναζωπυρώσουν τη νεανική φλόγα του πάθους τους. Τα δύσκολα τώρα αρχίζουν! Καμιά φορά για να κρατήσεις τη μαγεία, πρέπει να μάθεις μερικά κολπάκια. Extras: Ο πρώτος ρόλος προσφέρθηκε στον Jeff Bridges, αλλά αυτός τον απέρριψε. ΑΝ ΘΕΛΕΤΕ ΝΑ ΣΤΗΡΙΞΕΤΕ ΤΗΝ ΔΟΥΛΕΙΑ ΜΟΥ ΚΑΝΤΕ ΕΥΚΟΛΑ ΚΑΙ ΓΡΗΓΟΡΑ ΛΟΓΑΡΙΑΣΜΟ ΣΤΟ EASYBYTEZ KAI KATEΒΑΣΤΕ ΣΑΝ PREMIUM AΠO 20 HOST!! http://www.easybytez.com/free2771.html [Hidden Content] [Hidden Content] [Hidden Content]
  15. Είδος Ταινίας: Biography, Drama, History Πρεμιέρα: 2 November 2017 (Czech Republic) Σκηνοθέτης: David Mrnka Σενάριο: David Mrnka, Robert J. Conant Ηθοποιοί: Ayelet Zurer, Robert Gant, Daniel Rchichev Υπότιτλοι: Ελληνικοί Ενσωματωμένοι & Σε Ξεχωριστό Αρχείο Ελληνικός Τίτλος: Μιλάντα Μετάφραση: Ειρήνη Μαρκοπούλου Διάρκεια: 124' Καταλληλότητα: - encoder: .:Sexmeup:. Πηγή: 720p.WEB-DL.AC3.X264-CMRG Υπόθεση: Η Μιλάντα Χοράκοβα, πολιτικός και ακτιβίστρια για τα ανθρώπινα δικαιώματα, παλεύει για να υπερασπιστεί τα πιστεύω της στην κομμουνιστική Τσεχοσλοβακία. ΑΝ ΘΕΛΕΤΕ ΝΑ ΣΤΗΡΙΞΕΤΕ ΤΗΝ ΔΟΥΛΕΙΑ ΜΟΥ ΚΑΝΤΕ ΕΥΚΟΛΑ ΚΑΙ ΓΡΗΓΟΡΑ ΛΟΓΑΡΙΑΣΜΟ ΣΤΟ EASYBYTEZ KAI KATEΒΑΣΤΕ ΣΑΝ PREMIUM AΠO 20 HOST!! http://www.easybytez.com/free2771.html [Hidden Content] [Hidden Content] [Hidden Content]
  16. Είδος Ταινίας: Drama Πρεμιέρα: 18 July 2013 (Greece) Σκηνοθέτης: Jeff Nichols Σενάριο: Jeff Nichols Ηθοποιοί: Matthew McConaughey, Tye Sheridan, Jacob Lofland Υπότιτλοι: Ελληνικοί Ενσωματωμένοι & Σε Ξεχωριστό Αρχείο Ελληνικός Τίτλος: Ένα καλοκαίρι Μετάφραση: ADESPOTI - WEREWOLF - VICKY - FOXYGROUP Διάρκεια: 130' Καταλληλότητα: Υπόθεση: Σε ένα νησάκι του Μισισίπι, δύο 14χρονα αγόρια βρίσκουν έναν φυγά, τον Μαντ. Και οι δύο συμφωνούν να τον προστατεύσουν από την αστυνομία και να τον βοηθήσουν. Μαζί, όμως, τα δύο παιδιά μέλει να τον βοηθήσουν να ξαναβρεί την αγάπη της ζωής του. http://www.imdb.com/title/tt1935179/[/CODE] [IMG=http://c1.staticflickr.com/5/4780/40089464785_599858f97a_o.png] [IMG=http://farm1.staticflickr.com/824/27402961167_d1f2851b76_o.jpg] [IMG=http://c1.staticflickr.com/1/799/40982563121_97d9e4fb96_o.png] [video=youtube;2m9IFlz2iYo]http://www.youtube.com/watch?v=2m9IFlz2iYo[/video] [FONT=verdana][B]TEXNIKA XAΡΑΚΤΗΡΙΣΤΙΚΑ [/B][/FONT] [SPOILER] [CODE] General Complete name : C:\Users\Administrator\Downloads\mud1080brsexmeup\Mud.2012.1080p.BluRay.x264-SPARKS.mkv Format : Matroska Format version : Version 2 File size : 8.74 GiB Duration : 2 h 10 min Overall bit rate : 9 577 kb/s Writing application : mkvmerge v4.1.1 ('Bouncin' Back') built on Jul 3 2010 22:54:08 Writing library : libebml v1.0.0 + libmatroska v1.0 Video ID : 1 Format : AVC Format/Info : Advanced Video Codec Format profile : [email protected] Format settings : CABAC / 5 Ref Frames Format settings, CABAC : Yes Format settings, RefFrames : 5 frames Codec ID : V_MPEG4/ISO/AVC Duration : 2 h 10 min Bit rate : 8 068 kb/s Width : 1 920 pixels Height : 816 pixels Display aspect ratio : 2.35:1 Frame rate mode : Constant Frame rate : 23.976 FPS Color space : YUV Chroma subsampling : 4:2:0 Bit depth : 8 bits Scan type : Progressive Bits/(Pixel*Frame) : 0.215 Stream size : 7.19 GiB (82%) Writing library : x264 core 133 r2334 a3ac64b Encoding settings : cabac=1 / ref=5 / deblock=1:0:0 / analyse=0x3:0x133 / me=umh / subme=7 / psy=1 / psy_rd=1.00:0.00 / mixed_ref=1 / me_range=16 / chroma_me=1 / trellis=1 / 8x8dct=1 / cqm=0 / deadzone=21,11 / fast_pskip=0 / chroma_qp_offset=-2 / threads=12 / lookahead_threads=2 / sliced_threads=0 / nr=0 / decimate=1 / interlaced=0 / bluray_compat=0 / constrained_intra=0 / bframes=3 / b_pyramid=2 / b_adapt=1 / b_bias=0 / direct=1 / weightb=1 / open_gop=0 / weightp=2 / keyint=250 / keyint_min=23 / scenecut=40 / intra_refresh=0 / rc_lookahead=40 / rc=2pass / mbtree=1 / bitrate=8068 / ratetol=1.0 / qcomp=0.60 / qpmin=0 / qpmax=69 / qpstep=4 / cplxblur=20.0 / qblur=0.5 / ip_ratio=1.40 / aq=1:1.00 Language : English Default : Yes Forced : No Audio ID : 2 Format : DTS Format/Info : Digital Theater Systems Codec ID : A_DTS Duration : 2 h 10 min Bit rate mode : Constant Bit rate : 1 509 kb/s Channel(s) : 6 channels Channel positions : Front: L C R, Side: L R, LFE Sampling rate : 48.0 kHz Frame rate : 93.750 FPS (512 SPF) Bit depth : 24 bits Compression mode : Lossy Stream size : 1.38 GiB (16%) Language : English Default : Yes Forced : No [/CODE] [/SPOILER] [IMG=http://c1.staticflickr.com/1/791/39173997270_2f2136d533_o.png] [IMG=http://c1.staticflickr.com/1/789/39174288770_254a09d05d_o.png] [SIZE=3][FONT=verdana][B]ΑΝ ΘΕΛΕΤΕ ΝΑ ΣΤΗΡΙΞΕΤΕ ΤΗΝ ΔΟΥΛΕΙΑ ΜΟΥ ΚΑΝΤΕ ΕΥΚΟΛΑ ΚΑΙ ΓΡΗΓΟΡΑ ΛΟΓΑΡΙΑΣΜΟ ΣΤΟ [COLOR=#ff0000]EASYBYTEZ [/COLOR]KAI KATEΒΑΣΤΕ ΣΑΝ PREMIUM AΠO [COLOR=#ff0000]20 [/COLOR]HOST!! [COLOR=#ff0000]http://www.easybytez.com/free2771.html[/COLOR][/B][/FONT][/SIZE][/CENTER] [Hidden Content] [CENTER][IMG=http://farm1.staticflickr.com/980/28332633208_26bcd1615a_o.png][/CENTER] [Hidden Content][CENTER][Hidden Content] [IMG=http://c1.staticflickr.com/5/4786/40089466905_8e4a5d3f42_o.png] [/CENTER]
  17. Είδος Ταινίας: Drama, Romance Πρεμιέρα: 8 March 2017 (France) Σκηνοθέτης: Nicolas Bedos Σενάριο: Nicolas Bedos, Doria Tillier Ηθοποιοί: Doria Tillier, Nicolas Bedos, Denis Podalydes Υπότιτλοι: Ελληνικοί Ενσωματωμένοι & Σε Ξεχωριστό Αρχείο Ελληνικός Τίτλος: Ο Κύριος και η Κυρία Αντελμάν Γνωστό και ως: Monsieur & Madame Adelman Μετάφραση: CRS Διάρκεια: 120' Καταλληλότητα: - encoder: .:Sexmeup:. Πηγή: FRENCH.1080p.BluRay.x264-LOST Υπόθεση: Βρισκόμαστε στην κηδεία ενός διάσημου συγγραφέα. Όλοι τριγύρω διερωτώνται πάνω στις περίεργες συνθήκες του θανάτου. Ένας νεαρός βιογράφος μιλάει στη χήρα, αναζητώντας λεπτομέρειες πάνω στη ζωή τους. Δεν ήταν αυτή η μούσα του, ο πρώτος άνθρωπος που διάβαζε τη δουλειά του; Όταν η Σάρα γνωρίζει τον Βενσάν το 1971, δεν ξέρει ακόμα ότι θα πορευτούν μαζί 45 χρόνια και θα ζήσουν μια ζωή γεμάτη πάθος και μυστικά, πόνο και εκπλήξεις. Πρόκειται για την οδύσσεια ενός ζευγαριού. ΑΝ ΘΕΛΕΤΕ ΝΑ ΣΤΗΡΙΞΕΤΕ ΤΗΝ ΔΟΥΛΕΙΑ ΜΟΥ ΚΑΝΤΕ ΕΥΚΟΛΑ ΚΑΙ ΓΡΗΓΟΡΑ ΛΟΓΑΡΙΑΣΜΟ ΣΤΟ EASYBYTEZ KAI KATEΒΑΣΤΕ ΣΑΝ PREMIUM AΠO 20 HOST!! http://www.easybytez.com/free2771.html [Hidden Content] [Hidden Content] [Hidden Content]
  18. Είδος Ταινίας: Drama, Romance Πρεμιέρα: 8 March 2017 (France) Σκηνοθέτης: Nicolas Bedos Σενάριο: Nicolas Bedos, Doria Tillier Ηθοποιοί: Doria Tillier, Nicolas Bedos, Denis Podalydes Υπότιτλοι: Ελληνικοί Ενσωματωμένοι & Σε Ξεχωριστό Αρχείο Ελληνικός Τίτλος: Ο Κύριος και η Κυρία Αντελμάν Γνωστό και ως: Monsieur & Madame Adelman Μετάφραση: CRS Διάρκεια: 120' Καταλληλότητα: - encoder: .:Sexmeup:. Πηγή: FRENCH.1080p.BluRay.x264-LOST Υπόθεση: Βρισκόμαστε στην κηδεία ενός διάσημου συγγραφέα. Όλοι τριγύρω διερωτώνται πάνω στις περίεργες συνθήκες του θανάτου. Ένας νεαρός βιογράφος μιλάει στη χήρα, αναζητώντας λεπτομέρειες πάνω στη ζωή τους. Δεν ήταν αυτή η μούσα του, ο πρώτος άνθρωπος που διάβαζε τη δουλειά του; Όταν η Σάρα γνωρίζει τον Βενσάν το 1971, δεν ξέρει ακόμα ότι θα πορευτούν μαζί 45 χρόνια και θα ζήσουν μια ζωή γεμάτη πάθος και μυστικά, πόνο και εκπλήξεις. Πρόκειται για την οδύσσεια ενός ζευγαριού. ΑΝ ΘΕΛΕΤΕ ΝΑ ΣΤΗΡΙΞΕΤΕ ΤΗΝ ΔΟΥΛΕΙΑ ΜΟΥ ΚΑΝΤΕ ΕΥΚΟΛΑ ΚΑΙ ΓΡΗΓΟΡΑ ΛΟΓΑΡΙΑΣΜΟ ΣΤΟ EASYBYTEZ KAI KATEΒΑΣΤΕ ΣΑΝ PREMIUM AΠO 20 HOST!! http://www.easybytez.com/free2771.html [Hidden Content] [Hidden Content] [Hidden Content]
  19. Είδος Ταινίας: Action, Crime, Drama Πρεμιέρα: 27 September 2012 (Greece) Σκηνοθέτης: Rian Johnson Σενάριο: Rian Johnson Ηθοποιοί: Joseph Gordon-Levitt, Bruce Willis, Emily Blunt Υπότιτλοι: Ελληνικοί Ενσωματωμένοι & Σε Ξεχωριστό Αρχείο Ελληνικός Τίτλος: Looper: Αντιμέτωποι με το χρόνο Μετάφραση: nancymiami Διάρκεια: 113' Καταλληλότητα: - encoder: .:Sexmeup:. Πηγή: 1080p.BluRay.x264-SPARKS Υπόθεση: Ο Τζο είναι ένας «Looper», ένας επαγγελματίας δολοφόνος από το μέλλον που χρησιμοποιεί μια μηχανή του χρόνου για να επιστρέψει στο παρελθόν και να εκτελέσει τα θύματά του. Είναι ο καλύτερος στο είδος του, η μαφία τον πληρώνει καλά και ζει μια ωραία ζωή. Όταν, όμως, ανακαλύπτει ότι ο επόμενος στόχος είναι ο ίδιος του ο εαυτός, ο Τζο δεν καταφέρνει να πατήσει τη σκανδάλη. Κυνηγημένος στο μέλλον. Στοιχειωμένος στο παρελθόν. ΑΝ ΘΕΛΕΤΕ ΝΑ ΣΤΗΡΙΞΕΤΕ ΤΗΝ ΔΟΥΛΕΙΑ ΜΟΥ ΚΑΝΤΕ ΕΥΚΟΛΑ ΚΑΙ ΓΡΗΓΟΡΑ ΛΟΓΑΡΙΑΣΜΟ ΣΤΟ EASYBYTEZ KAI KATEΒΑΣΤΕ ΣΑΝ PREMIUM AΠO 20 HOST!! http://www.easybytez.com/free2771.html [Hidden Content] [Hidden Content] [Hidden Content]
  20. Είδος Ταινίας: Action, Crime, Drama Πρεμιέρα: 27 September 2012 (Greece) Σκηνοθέτης: Rian Johnson Σενάριο: Rian Johnson Ηθοποιοί: Joseph Gordon-Levitt, Bruce Willis, Emily Blunt Υπότιτλοι: Ελληνικοί Ενσωματωμένοι & Σε Ξεχωριστό Αρχείο Ελληνικός Τίτλος: Looper: Αντιμέτωποι με το χρόνο Μετάφραση: nancymiami Διάρκεια: 113' Καταλληλότητα: - encoder: .:Sexmeup:. Πηγή: 1080p.BluRay.x264-SPARKS Υπόθεση: Ο Τζο είναι ένας «Looper», ένας επαγγελματίας δολοφόνος από το μέλλον που χρησιμοποιεί μια μηχανή του χρόνου για να επιστρέψει στο παρελθόν και να εκτελέσει τα θύματά του. Είναι ο καλύτερος στο είδος του, η μαφία τον πληρώνει καλά και ζει μια ωραία ζωή. Όταν, όμως, ανακαλύπτει ότι ο επόμενος στόχος είναι ο ίδιος του ο εαυτός, ο Τζο δεν καταφέρνει να πατήσει τη σκανδάλη. Κυνηγημένος στο μέλλον. Στοιχειωμένος στο παρελθόν. ΑΝ ΘΕΛΕΤΕ ΝΑ ΣΤΗΡΙΞΕΤΕ ΤΗΝ ΔΟΥΛΕΙΑ ΜΟΥ ΚΑΝΤΕ ΕΥΚΟΛΑ ΚΑΙ ΓΡΗΓΟΡΑ ΛΟΓΑΡΙΑΣΜΟ ΣΤΟ EASYBYTEZ KAI KATEΒΑΣΤΕ ΣΑΝ PREMIUM AΠO 20 HOST!! http://www.easybytez.com/free2771.html [Hidden Content] [Hidden Content] [Hidden Content]
  21. Είδος Ταινίας: Drama, Horror, Sci-Fi Πρεμιέρα: 5 April 2018 (Greece) Σκηνοθέτης: John Krasinski Σενάριο: Bryan Woods (screenplay by), Scott Beck (screenplay by) Ηθοποιοί: Emily Blunt, John Krasinski, Millicent Simmonds Υπότιτλοι: Ελληνικοί Ενσωματωμένοι & Σε Ξεχωριστό Αρχείο Ελληνικός Τίτλος: Ένα ήσυχο μέρος Μετάφραση: RedChili Διάρκεια: 90' Καταλληλότητα: - encoder: .:Sexmeup:. Πηγή: 1080p.HC.HDRip.X264.AC3-EVO Σημείωση: Αφαιρέθηκαν οι Κινέζικοι υπότιτλοι.Καλή θέαση! Υπόθεση: Σε έναν μετα-αποκαλυπτικό κόσμο γεμάτο τέρατα, υπερευαίσθητα στον παραμικρό θόρυβο, μια τετραμελής οικογένεια αναγκάζεται να ζει στην απόλυτη σιωπή προκειμένου να επιβιώσει. Οι μέρες περνούν και η απειλή πλησιάζει όλο και περισσότερο. Ακόμα και η ανάσα μπορεί να σημάνει το τέλος... Η σιωπή είναι επιβίωση. ΑΝ ΘΕΛΕΤΕ ΝΑ ΣΤΗΡΙΞΕΤΕ ΤΗΝ ΔΟΥΛΕΙΑ ΜΟΥ ΚΑΝΤΕ ΕΥΚΟΛΑ ΚΑΙ ΓΡΗΓΟΡΑ ΛΟΓΑΡΙΑΣΜΟ ΣΤΟ EASYBYTEZ KAI KATEΒΑΣΤΕ ΣΑΝ PREMIUM AΠO 20 HOST!! http://www.easybytez.com/free2771.html [Hidden Content] [Hidden Content] [Hidden Content]
  22. Είδος Ταινίας: Biography, Drama, History Πρεμιέρα: 23 September 2016 (Norway) Σκηνοθέτης: Erik Poppe Σενάριο: Harald Rosenlow-Eeg, Jan Trygve Royneland Ηθοποιοί: Jesper Christensen, Anders Baasmo Christiansen, Karl Markovics Υπότιτλοι: Ελληνικοί Ενσωματωμένοι & Σε Ξεχωριστό Αρχείο Γνωστό και ως: Kongens nei Μετάφραση: MedievalGuy Διάρκεια: 133' Καταλληλότητα: - encoder: .:Sexmeup:. Πηγή: 1080p.BluRay.DTS-HD.MA.5.1.x264-HDH Υπόθεση: Τη νύχτα της 9ης Απριλίου του 1945, ο στόλος των ναζί επιτίθεται στο Όσλο. Όταν οι χιτλερικές δυνάμεις δίνουν τελεσίγραφο για παράδοση, ο νορβηγός πρωθυπουργός παραδίδει την παραίτηση του. Η χώρα μοιάζει να διαλύεται, αλλά υπάρχουν δύο άντρες που πιστεύουν ακόμα σε αυτήν. Ο βασιλιάς Χάακον και ο γερμανός διπλωμάτης Κουρτ Μπράουερ. Οι ναζί διατάζουν να κυνηγηθεί ο βασιλιάς και η οικογένεια του. Κι ενώ ο βασιλιάς δεν γνωρίζει αν τον στηρίζουν ούτε ο γιος του, ούτε η βουλή, αντιμετωπίζει μια επιλογή που θα αλλάξει τη μοίρα του έθνους για πάντα. ΑΝ ΘΕΛΕΤΕ ΝΑ ΣΤΗΡΙΞΕΤΕ ΤΗΝ ΔΟΥΛΕΙΑ ΜΟΥ ΚΑΝΤΕ ΕΥΚΟΛΑ ΚΑΙ ΓΡΗΓΟΡΑ ΛΟΓΑΡΙΑΣΜΟ ΣΤΟ EASYBYTEZ KAI KATEΒΑΣΤΕ ΣΑΝ PREMIUM AΠO 20 HOST!! http://www.easybytez.com/free2771.html [Hidden Content] [Hidden Content] [Hidden Content]
  23. Είδος Ταινίας: Biography, Drama, History Πρεμιέρα: 23 September 2016 (Norway) Σκηνοθέτης: Erik Poppe Σενάριο: Harald Rosenlow-Eeg, Jan Trygve Royneland Ηθοποιοί: Jesper Christensen, Anders Baasmo Christiansen, Karl Markovics Υπότιτλοι: Ελληνικοί Ενσωματωμένοι & Σε Ξεχωριστό Αρχείο Γνωστό και ως: Kongens nei Μετάφραση: MedievalGuy Διάρκεια: 133' Καταλληλότητα: - encoder: .:Sexmeup:. Πηγή: 1080p.BluRay.DTS-HD.MA.5.1.x264-HDH Υπόθεση: Τη νύχτα της 9ης Απριλίου του 1945, ο στόλος των ναζί επιτίθεται στο Όσλο. Όταν οι χιτλερικές δυνάμεις δίνουν τελεσίγραφο για παράδοση, ο νορβηγός πρωθυπουργός παραδίδει την παραίτηση του. Η χώρα μοιάζει να διαλύεται, αλλά υπάρχουν δύο άντρες που πιστεύουν ακόμα σε αυτήν. Ο βασιλιάς Χάακον και ο γερμανός διπλωμάτης Κουρτ Μπράουερ. Οι ναζί διατάζουν να κυνηγηθεί ο βασιλιάς και η οικογένεια του. Κι ενώ ο βασιλιάς δεν γνωρίζει αν τον στηρίζουν ούτε ο γιος του, ούτε η βουλή, αντιμετωπίζει μια επιλογή που θα αλλάξει τη μοίρα του έθνους για πάντα. ΑΝ ΘΕΛΕΤΕ ΝΑ ΣΤΗΡΙΞΕΤΕ ΤΗΝ ΔΟΥΛΕΙΑ ΜΟΥ ΚΑΝΤΕ ΕΥΚΟΛΑ ΚΑΙ ΓΡΗΓΟΡΑ ΛΟΓΑΡΙΑΣΜΟ ΣΤΟ EASYBYTEZ KAI KATEΒΑΣΤΕ ΣΑΝ PREMIUM AΠO 20 HOST!! http://www.easybytez.com/free2771.html [Hidden Content] [Hidden Content] [Hidden Content]
  24. Είδος Ταινίας: Drama Πρεμιέρα: 27 October 2011 (South Korea) Σκηνοθέτης: Jim Kohlberg Σενάριο: Gwyn Lurie (screenplay), Gary Marks (screenplay) Ηθοποιοί: Lou Taylor Pucci, J.K. Simmons, Julia Ormond Υπότιτλοι: Ελληνικοί Ενσωματωμένοι & Σε Ξεχωριστό Αρχείο Ελληνικός Τίτλος: Η μουσική δεν σταματά ποτέ Μετάφραση: αγαπάκι Διάρκεια: 105' Καταλληλότητα: Υπόθεση: Ο Χένρι Σόγιερ προσπαθεί να κερδίσει τον χαμένο χρόνο με τον αποξενωμένο του γιο, Γκάμπριελ, τώρα που ο τελευταίος πάσχει από καρκίνο του εγκεφάλου που δεν τον αφήνει να διαμορφώνει νέες μνήμες. Κι ενώ ο Γκάμπριελ δεν μπορεί να αγνοήσει τους λόγους που τους έφεραν σε απόσταση, ο Χένρι επιλέγει την μουσική για να επικοινωνήσουν. «Γνωρίζω τον τρόπο για να σε πάω σπίτι.» - Grateful Dead, Ripple http://www.imdb.com/title/tt1613062/[/CODE] [IMG=http://c1.staticflickr.com/5/4780/40089464785_599858f97a_o.png] [IMG=http://farm1.staticflickr.com/958/28401016558_dd12edbd64_o.jpg] [IMG=http://c1.staticflickr.com/1/799/40982563121_97d9e4fb96_o.png] [video=youtube;QOKP4I5Y2zY]http://www.youtube.com/watch?v=QOKP4I5Y2zY[/video] [FONT=verdana][B]TEXNIKA XAΡΑΚΤΗΡΙΣΤΙΚΑ [/B][/FONT] [SPOILER] [CODE] General Unique ID : 229467994291720129406608015952422784934 (0xACA1ED9B23B3B6EA8276B2953D264FA6) Complete name : C:\Users\Administrator\Downloads\themusicneverstopped1080brsexmeup\The.Music.Never.Stopped.2011.LIMITED.1080p.BluRay.x264-SPARKS.mkv Format : Matroska Format version : Version 2 File size : 7.65 GiB Duration : 1 h 44 min Overall bit rate : 10.5 Mb/s Encoded date : UTC 2011-12-31 18:18:19 Writing application : mkvmerge v5.1.0 ('And so it goes') built on Nov 28 2011 23:58:28 Writing library : libebml v1.2.3 + libmatroska v1.3.0 Video ID : 1 Format : AVC Format/Info : Advanced Video Codec Format profile : [email protected] Format settings : CABAC / 5 Ref Frames Format settings, CABAC : Yes Format settings, RefFrames : 5 frames Muxing mode : Header stripping Codec ID : V_MPEG4/ISO/AVC Duration : 1 h 44 min Bit rate : 8 965 kb/s Width : 1 920 pixels Height : 808 pixels Display aspect ratio : 2.40:1 Frame rate mode : Constant Frame rate : 23.976 FPS Color space : YUV Chroma subsampling : 4:2:0 Bit depth : 8 bits Scan type : Progressive Bits/(Pixel*Frame) : 0.241 Stream size : 6.39 GiB (84%) Writing library : x264 core 120 r2120 0c7dab9 Encoding settings : cabac=1 / ref=5 / deblock=1:0:0 / analyse=0x3:0x133 / me=umh / subme=7 / psy=1 / psy_rd=1.00:0.00 / mixed_ref=1 / me_range=16 / chroma_me=1 / trellis=1 / 8x8dct=1 / cqm=0 / deadzone=21,11 / fast_pskip=0 / chroma_qp_offset=-2 / threads=12 / sliced_threads=0 / nr=0 / decimate=1 / interlaced=0 / bluray_compat=0 / constrained_intra=0 / bframes=3 / b_pyramid=2 / b_adapt=2 / b_bias=0 / direct=3 / weightb=1 / open_gop=0 / weightp=2 / keyint=250 / keyint_min=23 / scenecut=40 / intra_refresh=0 / rc_lookahead=50 / rc=2pass / mbtree=1 / bitrate=8965 / ratetol=1.0 / qcomp=0.60 / qpmin=0 / qpmax=69 / qpstep=4 / cplxblur=20.0 / qblur=0.5 / ip_ratio=1.40 / aq=1:1.00 Language : English Default : Yes Forced : No Audio ID : 2 Format : DTS Format/Info : Digital Theater Systems Muxing mode : Header stripping Codec ID : A_DTS Duration : 1 h 44 min Bit rate mode : Constant Bit rate : 1 509 kb/s Channel(s) : 6 channels Channel positions : Front: L C R, Side: L R, LFE Sampling rate : 48.0 kHz Frame rate : 93.750 FPS (512 SPF) Bit depth : 24 bits Compression mode : Lossy Stream size : 1.10 GiB (14%) Default : Yes Forced : No [/CODE] [/SPOILER] [IMG=http://c1.staticflickr.com/1/791/39173997270_2f2136d533_o.png] [IMG=http://c1.staticflickr.com/1/789/39174288770_254a09d05d_o.png] [SIZE=3][FONT=verdana][B]ΑΝ ΘΕΛΕΤΕ ΝΑ ΣΤΗΡΙΞΕΤΕ ΤΗΝ ΔΟΥΛΕΙΑ ΜΟΥ ΚΑΝΤΕ ΕΥΚΟΛΑ ΚΑΙ ΓΡΗΓΟΡΑ ΛΟΓΑΡΙΑΣΜΟ ΣΤΟ [COLOR=#ff0000]EASYBYTEZ [/COLOR]KAI KATEΒΑΣΤΕ ΣΑΝ PREMIUM AΠO [COLOR=#ff0000]20 [/COLOR]HOST!! [COLOR=#ff0000]http://www.easybytez.com/free2771.html[/COLOR][/B][/FONT][/SIZE][/CENTER] [Hidden Content] [CENTER][IMG=http://farm1.staticflickr.com/980/28332633208_26bcd1615a_o.png][/CENTER] [Hidden Content][CENTER][Hidden Content] [IMG=http://c1.staticflickr.com/5/4786/40089466905_8e4a5d3f42_o.png] [/CENTER]
×